Плюс один (Оксана Бычкова) [2008, комедия, мелодрама, DVDRip]

Ответить на тему
 
Автор Сообщение

user ®

Стаж: 7 лет 7 месяцев

Сообщений: 20008

Пост Пост: #1 от 27-Янв-2014 12:35

[Цитировать]

Плюс один
Год выпуска: 2008
Жанр: Комедия, мелодрама
Продолжительность: 01:36:59
Режиссер: Оксана Бычкова
В ролях: Мадлен Джабраилова, Джетро Скиннер, Владимир Ильин, Мирослава Карпович, Евгений Цыганов, Юрий Колокольников, Павел Деревянко, Мириам Сехон, Елена Семенова, Кирилл Пирогов, Евгения Симонова
Описание: В старой московской квартире живет одинокая переводчица Маша. Маше немного «за тридцать», она литературный переводчик и полностью погружена в свою серьезную работу. Маша уже давно живет замкнуто, общаясь с окружающими только по мере необходимости. Специфика работы, природная скромность, да еще и неудачный роман, — этих причин было достаточно, чтобы Маша замкнулась в своем маленьком мирке…. Целые дни она проводит в уютной тишине бабушкиной «профессорской» квартиры, стараясь не обращать внимания на то, что за ее окном, выходящим на широкий балкон-«козырек», кипит жизнь…
Однажды ранней весной в столицу приезжает всемирно известный постановщик кукольных шоу Том Гринвуд вместе со своей смешной пучеглазой куклой Дигги, чтобы провести мастер-классы для молодых российских артистов. Встреча Маши с Томом меняет всю ее жизнь, дарит любовь, на которую в душе надеется каждый…
- -Качество: DVDRip
Формат: AVI
Видео: 704x400 (1.76:1), 25 fps, XviD build 65 ~1692 kbps avg, 0.24 bit/pixel
Аудио: 48 kHz, AC3 Dolby Digital, 3/2 (L,C,R,l,r) + LFE ch, ~448 kbps
-[url=http://***/forum/viewtopic.php?t=4653013]Плюс один - Фильм о фильме[/url]

MediaInfo

GeneralComplete name : Plus.odin_2008_Olu6ka.aviFormat : AVIFormat/Info : Audio Video InterleaveFile size : 1.46 GiBDuration : 1h 36mnOverall bit rate : 2 151 KbpsWriting application : VirtualDubMod 1.5.10.3Writing library : VirtualDubMod build 2550/release
VideoID : 0Format : MPEG-4 VisualFormat profile : Advanced Simple@L5Format settings, BVOP : 1Format settings, QPel : NoFormat settings, GMC : No warppointsFormat settings, Matrix : CustomCodec ID : XVIDCodec ID/Hint : XviDDuration : 1h 36mnBit rate : 1 693 KbpsWidth : 704 pixelsHeight : 400 pixelsDisplay aspect ratio : 16:9Frame rate : 25.000 fpsColor space : YUVChroma subsampling : 4:2:0Bit depth : 8 bitsScan type : ProgressiveCompression mode : LossyBits/(Pixel*Frame) : 0.240Stream size : 1.15 GiB (79%)Writing library : XviD 65
AudioID : 1Format : AC-3Format/Info : Audio Coding 3Mode extension : CM (complete main)Format settings, Endianness : BigCodec ID : 2000Duration : 1h 36mnBit rate mode : ConstantBit rate : 448 KbpsChannel count : 6 channelsChannel positions : Front: L C R, Side: L R, LFESampling rate : 48.0 KHzBit depth : 16 bitsCompression mode : LossyStream size : 311 MiB (21%)Alignment : Split accross interleavesInterleave, duration : 40 ms (1.00 video frame)Interleave, preload duration : 500 ms

Сравнение


[url=http://***/forum/viewtopic.php?t=1102381]http://***/forum/viewtopic.php?t=1102381[/url]
http://screenshotcomparison.com/comparison/59528/picture:6
перекроп, аспект
Большое спасибо vadi за DVD9Релиз от группы
Скачать

Скачать торрент!

Как скачивать? · Что такое торрент? · Рейтинг и ограничения

Сайт не распространяет и не хранит электронные версии произведений, а лишь предоставляет доступ к создаваемому пользователями каталогу ссылок на торрент-файлы, которые содержат только списки хеш-сумм

[Профиль] [ЛС]
Показать сообщения:    
Ответить на тему

Текущее время: Сегодня 03:50

Часовой пояс: GMT + 4



Вы не можете начинать темы
Вы не можете отвечать на сообщения
Вы не можете редактировать свои сообщения
Вы не можете удалять свои сообщения
Вы не можете голосовать в опросах
Вы не можете прикреплять файлы к сообщениям
Вы не можете скачивать файлы