Дворец / The Palace / Gong Suo Chen Xiang (Аньцзы Пань / Anzi Pan) [2013, Китай, Драма, мелодрама, история, HDTVRip] DVO (Ольга Гринтиева и Валерий Феодосов)

Ответить на тему
 
Автор Сообщение

user ®

Стаж: 11 лет

Сообщений: 15151

Пост Пост: #1 от 25-Янв-2014 20:35

[Цитировать]

-Дворец / The Palace / Gong Suo Chen Xiang-
Страна: Китай
Жанр: Драма, мелодрама, история
Год выпуска: 2013
Продолжительность: 01:49:09
Перевод:
Любительский (двухголосый закадровый) [Ольга Гринтиева и Валерий Феодосов]
Cубтитры: Китайские
Оригинальная аудиодорожка: нет
Режиссер: Аньцзы Пань / Anzi Pan
В ролях: Чжоу Дунъюй, Чэнь Сяо, Цзысяо Чжу, Лю Чжао, Бэйэр Бао, Ева Хуан, И Лу, Дикки Чунг, Уинстон Чао, Вивиан Ву
Описание: Чэнь Сян и Лю Ли в свои 12 лет попадают во дворец в качестве служанок, любую из них в любой момент может приметить император или принцы и тогда их ждёт сладкая жизнь наложницы или супруги. Они становятся подругами и дружба их длится ровно до момента, когда им приходится делить 13-го принца.
Это, своего рода, спинофф сериала Дворец. История любви 13-го принца и Чэнь Сян. Любовь, интриги, предательства и разлуки.
Качество видео: HDTVRip
Формат видео: AVI
Видео: XviD, 25,000 fps, 1716 Кбит/с, 720x304
Аудио: AC3, 48.0 KHz, 2 ch, 192 Кбит/с
Формат субтитров: hardsub (неотключаемые)
-Озвучено группой: GREEN TEA по субтитрам: ФСГ RINGU-Релиз от: GOLIAF- -

MediaInfo

Общее
Полное имя : C:\Раздачи\Dvoretc.2013.HDTVRip.1.46Gb.avi
Формат : AVI
Формат/Информация : Audio Video Interleave
Размер файла : 1,46 Гбайт
Продолжительность : 1 ч. 49 м.
Общий поток : 1914 Кбит/сек
Режиссёр : -=REGIS1975=-The Palace-=GOLIAF=-
Жанр : Drama | History
Программа кодирования : VirtualDubMod 1.5.4.1 (build 2066/release)
Библиотека кодирования : VirtualDubMod build 2066/release
Формат оригинала/Имя : Movie
Правообладатель : GOLIAF
Примечание : GREEN TEA
Видео
Идентификатор : 0
Формат : MPEG-4 Visual
Профиль формата : Simple@L1
Параметр BVOP формата : Нет
Параметр QPel формата : Нет
Параметр GMC формата : Без точки перехода
Параметр матрицы формата : Default (H.263)
Идентификатор кодека : DIVX
Идентификатор кодека/Информация : Project Mayo
Идентификатор кодека/Подсказка : DivX 4
Продолжительность : 1 ч. 49 м.
Битрейт : 1716 Кбит/сек
Ширина : 720 пикселей
Высота : 304 пикселя
Соотношение сторон : 2,35:1
Частота кадров : 25,000 кадров/сек
Цветовое пространство : YUV
Субдискретизация насыщенности : 4:2:0
Битовая глубина : 8 бит
Тип развёртки : Прогрессивная
Метод сжатия : С потерями
Бит/(Пиксели*Кадры) : 0.314
Размер потока : 1,31 Гбайт (90%)
Библиотека кодирования : Lavc53.8.0
Аудио
Идентификатор : 1
Формат : AC-3
Формат/Информация : Audio Coding 3
Расширение режима : CM (complete main)
Параметр Endianness формата : Big
Идентификатор кодека : 2000
Продолжительность : 1 ч. 49 м.
Вид битрейта : Постоянный
Битрейт : 192 Кбит/сек
Каналы : 2 канала
Расположение каналов : Front: L R
Частота : 48,0 КГц
Битовая глубина : 16 бит
Метод сжатия : С потерями
Размер потока : 150 Мбайт (10%)
Выравнивание : Соединение по промежуткам
Продолжительность промежутка : 160 мс. (4,00 видеокадра)
Время предзагрузки промежутка : 640 мс.

Скриншот c названием фильма

Скриншоты



- -
Скачать

Скачать торрент! Дворец / The Palace / Gong Suo Chen Xiang (Аньцзы Пань / Anzi Pan) [2013, Китай, Драма, мелодрама, история, HDTVRip] DVO (Ольга Гринтиева и Валерий Феодосов)

Как скачивать? · Что такое торрент? · Рейтинг и ограничения

Сайт не распространяет и не хранит электронные версии произведений, а лишь предоставляет доступ к создаваемому пользователями каталогу ссылок на торрент-файлы, которые содержат только списки хеш-сумм

[Профиль] [ЛС]
Показать сообщения:    
Ответить на тему

Текущее время: Сегодня 11:34

Часовой пояс: GMT + 4



Вы не можете начинать темы
Вы не можете отвечать на сообщения
Вы не можете редактировать свои сообщения
Вы не можете удалять свои сообщения
Вы не можете голосовать в опросах
Вы не можете прикреплять файлы к сообщениям
Вы не можете скачивать файлы