Любовь с уведомлением / Two Weeks Notice (Марк Лоуренс / Marc Lawrence) [2002, США, Австралия, мелодрама, комедия, WEB-DL 1080p] Dub + Sub Rus, Eng + Original Eng

Ответить на тему
 
Автор Сообщение

user ®

Стаж: 7 лет 7 месяцев

Сообщений: 20008

Пост Пост: #1 от 23-Янв-2014 06:50

[Цитировать]

Любовь с уведомлением / Two Weeks Notice
Страна: США, Австралия
Жанр: мелодрама, комедия
Год выпуска: 2002
Продолжительность: 01:41:09
Перевод: Профессиональный (дублированный)
Cубтитры: русские
Оригинальная аудиодорожка: английский
Режиссер: Марк Лоуренс / Marc Lawrence
В ролях: Сандра Буллок, Хью Грант, Алисия Уитт, Дэна Айви, Роберт Клейн, Хезер Бёрнс, Дэвид Хэйг, Дориан Миссик, Джозеф Бадалуччо мл., Джонатан Докучиц...
Описание: Джордж Уэйд и шага не может сделать без Люси Келсон, работающей главным консультантом в его корпорации. Однако обращается он с ней скорее как с няней, а не как с блестящим юристом, окончившим Гарвард. По прошествии года все это надоедает Люси, и она решает уволиться. Джордж соглашается ее отпустить, но с одним условием — она должна найти себе достойную замену…
Сэмпл: http://multi-up.com/942981
Тип релиза: WEB-DL 1080p
Контейнер: MKV
Видео: 1900x1074 (16:9), 23.976 fps, AVC, ~5098 Kbps, 0.104 bits/pixel
Аудио 1: Russian, 48.0 KHz, AC3, 6 ch, 384 Kbps
Аудио 2: English, 48.0 KHz, AC3, 6 ch, 384 Kbps
Формат субтитров: softsub (SRT)

MediaInfo

General
Unique ID : 216981408857156073781141007496753086477 (0xA33D1969B7094E43B12251EF2656800D)
Complete name : D:\Two Weeks Notice.mkv
Format : Matroska
Format version : Version 4 / Version 2
File size : 4.23 GiB
Duration : 1h 41mn
Overall bit rate : 5 985 Kbps
Encoded date : UTC 2014-01-22 14:22:47
Writing application : mkvmerge v6.7.0 ('Back to the Ground') 64bit built on Jan 8 2014 15:10:52
Writing library : libebml v1.3.0 + libmatroska v1.4.1
Video
ID : 1
Format : AVC
Format/Info : Advanced Video Codec
Format profile : High@L4.0
Format settings, CABAC : Yes
Format settings, ReFrames : 4 frames
Codec ID : V_MPEG4/ISO/AVC
Duration : 1h 41mn
Bit rate : 5 098 Kbps
Width : 1 900 pixels
Height : 1 074 pixels
Display aspect ratio : 16:9
Frame rate mode : Constant
Frame rate : 23.976 fps
Color space : YUV
Chroma subsampling : 4:2:0
Bit depth : 8 bits
Scan type : Progressive
Bits/(Pixel*Frame) : 0.104
Stream size : 3.60 GiB (85%)
Language : English
Default : Yes
Forced : No
Color primaries : BT.709
Transfer characteristics : BT.709
Matrix coefficients : BT.709
Audio #1
ID : 2
Format : AC-3
Format/Info : Audio Coding 3
Mode extension : CM (complete main)
Format settings, Endianness : Big
Codec ID : A_AC3
Duration : 1h 41mn
Bit rate mode : Constant
Bit rate : 384 Kbps
Channel count : 6 channels
Channel positions : Front: L C R, Side: L R, LFE
Sampling rate : 48.0 KHz
Bit depth : 16 bits
Compression mode : Lossy
Stream size : 278 MiB (6%)
Language : Russian
Default : No
Forced : No
Audio #2
ID : 3
Format : AC-3
Format/Info : Audio Coding 3
Mode extension : CM (complete main)
Format settings, Endianness : Big
Codec ID : A_AC3
Duration : 1h 41mn
Bit rate mode : Constant
Bit rate : 384 Kbps
Channel count : 6 channels
Channel positions : Front: L C R, Side: L R, LFE
Sampling rate : 48.0 KHz
Bit depth : 16 bits
Compression mode : Lossy
Stream size : 278 MiB (6%)
Language : English
Default : No
Forced : No
Text #1
ID : 4
Format : UTF-8
Codec ID : S_TEXT/UTF8
Codec ID/Info : UTF-8 Plain Text
Language : Russian
Default : No
Forced : No
Text #2
ID : 5
Format : UTF-8
Codec ID : S_TEXT/UTF8
Codec ID/Info : UTF-8 Plain Text
Language : English
Default : No
Forced : No
Menu
00:00:00.000 : en:Credits
00:02:21.000 : en:Wrecking-ball Busters
00:04:31.000 : en:Dinner For One
00:06:44.000 : en:The Wade Brothers
00:11:11.000 : en:New Chief Counsel
00:15:11.000 : en:Nonlegal Advice
00:20:27.000 : en:Giving To the Needy
00:23:39.000 : en:Two Weeks Notice
00:28:48.000 : en:Ironclad
00:31:41.000 : en:Just Brainstorming
00:35:41.000 : en:Meet the Parents
00:39:27.000 : en:Chess and Women
00:41:01.000 : en:No Hepburns
00:43:32.000 : en:Twisty Bobcat Pretzel
00:49:05.000 : en:The Interviewee
00:53:39.000 : en:The Swing of Things
00:55:57.000 : en:Gotta Go
01:00:18.000 : en:A Life Home
01:04:41.000 : en:George the Closer
01:08:31.000 : en:Letdown At the Ball
01:14:14.000 : en:Complimentary Breakfast
01:15:49.000 : en:Strip Class
01:19:52.000 : en:Stapler Standoff
01:23:12.000 : en:No Stains Needed
01:25:16.000 : en:People Change
01:28:09.000 : en:Voice In My Head
01:32:33.000 : en:Dinner For Two
01:36:14.000 : en:End Credits

Скриншоты

Скачать

Скачать торрент!

Как скачивать? · Что такое торрент? · Рейтинг и ограничения

Сайт не распространяет и не хранит электронные версии произведений, а лишь предоставляет доступ к создаваемому пользователями каталогу ссылок на торрент-файлы, которые содержат только списки хеш-сумм

[Профиль] [ЛС]
Показать сообщения:    
Ответить на тему

Текущее время: Сегодня 20:39

Часовой пояс: GMT + 4



Вы не можете начинать темы
Вы не можете отвечать на сообщения
Вы не можете редактировать свои сообщения
Вы не можете удалять свои сообщения
Вы не можете голосовать в опросах
Вы не можете прикреплять файлы к сообщениям
Вы не можете скачивать файлы