Пятая власть / The Fifth Estate (Билл Кондон / Bill Condon) [2013, Великобритания, Бельгия, триллер, драма, биография, BDRip 720p] Sub Rus + Original Eng

Ответить на тему
 
Автор Сообщение

user ®

Стаж: 7 лет 7 месяцев

Сообщений: 20008

Пост Пост: #1 от 22-Янв-2014 20:55

[Цитировать]

Пятая власть / The Fifth Estate
Страна: Великобритания, Бельгия
Жанр: триллер, драма, биография
Год выпуска: 2013
Продолжительность: 02:08:15
Cубтитры: русские
Оригинальная аудиодорожка: английский
Режиссер: Билл Кондон / Bill Condon
В ролях: Бенедикт Камбербэтч, Даниэль Брюль, Энтони Маки, Дэвид Тьюлис, Алисия Викандер, Стэнли Туччи, Лора Линни, Питер Капальди, Анатоль Таубман, Александр Байер, Кэрис Ван Хаутен, Дэн Стивенс, Мориц Бляйбтрой.
Описание: В мире, где информация ценится превыше всего, а утечка сведений под грифом «секретно» может вызвать необратимые последствия, сайт WikiLeaks навсегда поменял правила игры. Фильм, основанный на реальных событиях, рассказывает о попытке разоблачить государственную коррупцию и ложь властей, которая превратила интернет-стартап в одну из самых известных и обсуждаемых организаций 21-го века.
За первые годы существования WIKILEAKS обнародовал больше тайн, чем самые влиятельные в мире СМИ вместе взятые, раскрывая постыдные секреты государственных служб и финансовые преступления корпораций. Но когда основатели сайта получили доступ к крупнейшему засекреченному архиву США, им предстояло найти для себя ответ на один из важнейших вопросов современности: какова цена тайны в свободном обществе — и какова цена ее разглашения?
Доп. информация: Не слушайте никого, посмотрите этот фильм сами.
Очевидно, существует многосторонняя антипропаганда этой картины в политическом аспекте.
Трудно сказать, кто прав, но фильм снят интересно, качественно, и актёры играют замечательно.
Впрочем, судите сами.
За "спасибо" буду очень благодарна.
Перевод: русские субтитры
Релиз:
Сэмпл: http://multi-up.com/941565
Качество видео: BDRip
Формат видео: MKV
Видео: MPEG-4 AVC/H.264, 1280x536, 23,976 fps, 4587 kbps
Аудио: DTS, 48 KHz, 6 channels, 1509 kbps
Формат субтитров: softsub (SRT)

MediaInfo

General
Complete name : D:\The Fifth Estate 2013\The Fifth Estate 2013.mkv
Format : Matroska
Format version : Version 2
File size : 5.46 GiB
Duration : 2h 8mn
Overall bit rate : 6 099 Kbps
Writing application : mkvmerge v4.1.1 ('Bouncin' Back') built on Jul 3 2010 22:54:08
Writing library : libebml v1.0.0 + libmatroska v1.0
Video
ID : 1
Format : AVC
Format/Info : Advanced Video Codec
Format profile : High@L3.1
Format settings, CABAC : Yes
Format settings, ReFrames : 5 frames
Codec ID : V_MPEG4/ISO/AVC
Duration : 2h 8mn
Bit rate : 4 587 Kbps
Width : 1 280 pixels
Height : 536 pixels
Display aspect ratio : 2.40:1
Frame rate mode : Constant
Frame rate : 23.976 fps
Color space : YUV
Chroma subsampling : 4:2:0
Bit depth : 8 bits
Scan type : Progressive
Bits/(Pixel*Frame) : 0.279
Stream size : 4.00 GiB (73%)
Writing library : x264 core 140 r2377 1ca7bb9
Encoding settings : cabac=1 / ref=5 / deblock=1:0:0 / analyse=0x3:0x133 / me=umh / subme=7 / psy=1 / psy_rd=1.00:0.00 / mixed_ref=1 / me_range=16 / chroma_me=1 / trellis=1 / 8x8dct=1 / cqm=0 / deadzone=21,11 / fast_pskip=0 / chroma_qp_offset=-2 / threads=18 / lookahead_threads=3 / sliced_threads=0 / nr=0 / decimate=1 / interlaced=0 / bluray_compat=0 / constrained_intra=0 / bframes=3 / b_pyramid=2 / b_adapt=2 / b_bias=0 / direct=3 / weightb=1 / open_gop=0 / weightp=2 / keyint=250 / keyint_min=23 / scenecut=40 / intra_refresh=0 / rc_lookahead=50 / rc=2pass / mbtree=1 / bitrate=4587 / ratetol=1.0 / qcomp=0.60 / qpmin=0 / qpmax=69 / qpstep=4 / cplxblur=20.0 / qblur=0.5 / ip_ratio=1.40 / aq=1:1.00
Language : English
Default : Yes
Forced : No
Audio
ID : 2
Format : DTS
Format/Info : Digital Theater Systems
Mode : 16
Format settings, Endianness : Big
Codec ID : A_DTS
Duration : 2h 8mn
Bit rate mode : Constant
Bit rate : 1 509 Kbps
Channel count : 6 channels
Channel positions : Front: L C R, Side: L R, LFE
Sampling rate : 48.0 KHz
Bit depth : 24 bits
Compression mode : Lossy
Stream size : 1.35 GiB (25%)
Language : English
Default : Yes
Forced : No
Text
ID : 3
Format : UTF-8
Codec ID : S_TEXT/UTF8
Codec ID/Info : UTF-8 Plain Text
Language : English
Default : Yes
Forced : Yes
Menu
00:00:00.000 : en:00:00:00.000
00:05:53.144 : en:00:05:53.144
00:12:18.446 : en:00:12:18.446
00:19:35.007 : en:00:19:35.007
00:26:17.993 : en:00:26:17.993
00:34:17.472 : en:00:34:17.472
00:40:31.721 : en:00:40:31.721
00:46:53.853 : en:00:46:53.853
00:54:58.337 : en:00:54:58.337
01:01:29.853 : en:01:01:29.853
01:06:38.119 : en:01:06:38.119
01:14:39.266 : en:01:14:39.266
01:20:30.951 : en:01:20:30.951
01:32:05.979 : en:01:32:05.979
01:39:26.085 : en:01:39:26.085
01:47:48.671 : en:01:47:48.671
01:56:02.622 : en:01:56:02.622
02:02:54.909 : en:02:02:54.909

Скриншот c названием фильма

Скриншоты

Скачать

Скачать торрент!

Как скачивать? · Что такое торрент? · Рейтинг и ограничения

Сайт не распространяет и не хранит электронные версии произведений, а лишь предоставляет доступ к создаваемому пользователями каталогу ссылок на торрент-файлы, которые содержат только списки хеш-сумм

[Профиль] [ЛС]
Показать сообщения:    
Ответить на тему

Текущее время: Сегодня 22:31

Часовой пояс: GMT + 4



Вы не можете начинать темы
Вы не можете отвечать на сообщения
Вы не можете редактировать свои сообщения
Вы не можете удалять свои сообщения
Вы не можете голосовать в опросах
Вы не можете прикреплять файлы к сообщениям
Вы не можете скачивать файлы