Святые их трущоб 2: День всех святых / The Boondock Saints 2: All Saints Day (Трой Даффи / Troy Duffy) [2009, США, боевик, комедия, драма, криминал, BDRip 1080p] [Режиссёрская версия] Original Eng + Sub Rus

Ответить на тему
 
Автор Сообщение

user ®

Стаж: 7 лет 7 месяцев

Сообщений: 20008

Пост Пост: #1 от 22-Янв-2014 14:35

[Цитировать]

-Святые из трущоб 2: День всех святых / The Boondock Saints II: All Saints Day-
Год выпуска: 2009
Год выпуска режиссёрской версии: 2013
Страны: США
Студия: Stage 6 Films
Жанры: боевик, триллер, драма, комедия, криминал
Продолжительность: 02:18:01
Перевод: субтитры [Fr0St1X]
Оригинальный аудиопоток: английский--Режиссер: Трой Даффи
Сценарий: Трой Даффи, Тейлор Даффи
Продюсер: Крис Бринкер, Дон Кармоди, Роберт Н. Фрид и др.
Оператор: Мирослав Бажак
Композитор: Джефф Дэнна
Художник: Дэн Ярхи, Дэннис Девенпорт, Джорджина Ярхи и др.
Монтаж: Билл ДеРонде, Пол Кумпата-В ролях:
Шон Патрик Флэнери / Sean Patrick Flanery (Коннор МакМанус), Норман Ридус / Norman Reedus (Мёрфи МакМанус), Билли Коннолли / Billy Connolly (Ной), Клифтон Коллинз мл. / Clifton Collins Jr. (Ромео), Джули Бенц / Julie Benz (Юнис Блум), Боб Марли / Bob Marley (Детектив Гринли), Брайан Махони / Brian Mahoney (Детектив Даффи), Дэвид Ферри / David Ferry (Детектив Долли)-Описание:
Последние 8 лет братья жили вместе с отцом на ферме в глубинке Ирландии. Однажды их дядя рассказывает им о слухах, что они причастны к убийству католического священника Бостона. Парни возвращаются в Бостон, чтобы очистить свою испорченную репутацию, и найти людей, подставивших их.-Бюджет: $8 000 000
Сборы в США: $10 244 070
Сборы в мире: + $356 133 = $10 600 203
Премьера (мир): 19 октября 2009,
Релиз на DVD: 18 марта 2010, «Columbia/Sony»
Релиз на Blu-Ray: 18 марта 2010, «Columbia/Sony»
Релиз на Blu-Ray режиссёрской версии: 16 июля 2013, «Columbia/Sony»
Рейтинг MPAA: Лицам до 17 лет обязательно присутствие взрослого- -

МедиаИнфо

Общее
Уникальный идентификатор : 212485156341316924154510434654642590266 (0x9FDB270C706462DBA86480442EAD523A)
Полное имя : C:\Users\Frostix\The.Boondock.Saints.II.All.Saints.Day.Directors.Cut-FROSTIX.mkv
Формат : Matroska
Версия формата : Version 4 / Version 2
Размер файла : 9,84 Гбайт
Продолжительность : 2 ч. 18 м.
Общий поток : 10,2 Мбит/сек
Название фильма : Святые из Трущоб II: День Всех Святых [Русские субтитры]
Дата кодирования : UTC 2014-01-19 20:11:43
Программа кодирования : mkvmerge v6.6.0 ('The Edge Of The In Between') built on Dec 1 2013 17:55:00
Библиотека кодирования : libebml v1.3.0 + libmatroska v1.4.1
Attachment : Yes / Yes / Yes / Yes / Yes / Yes
Видео
Идентификатор : 1
Формат : AVC
Формат/Информация : Advanced Video Codec
Профиль формата : High@L4.1
Параметр CABAC формата : Да
Параметр ReFrames формата : 5 кадров
Идентификатор кодека : V_MPEG4/ISO/AVC
Продолжительность : 2 ч. 18 м.
Битрейт : 8695 Кбит/сек
Ширина : 1920 пикселей
Высота : 816 пикселей
Соотношение сторон : 2,35:1
Режим частоты кадров : Постоянный
Частота кадров : 23,976 кадра/сек
Цветовое пространство : YUV
Субдискретизация насыщенности : 4:2:0
Битовая глубина : 8 бит
Тип развёртки : Прогрессивная
Бит/(Пиксели*Кадры) : 0.231
Размер потока : 8,19 Гбайт (83%)
Библиотека кодирования : x264 core 135 r2345 f0c1c53
Настройки программы : cabac=1 / ref=5 / deblock=1:-3:-3 / analyse=0x3:0x113 / me=umh / subme=8 / psy=1 / psy_rd=1.00:0.00 / mixed_ref=1 / me_range=16 / chroma_me=1 / trellis=1 / 8x8dct=1 / cqm=0 / deadzone=21,11 / fast_pskip=1 / chroma_qp_offset=-2 / threads=12 / lookahead_threads=2 / sliced_threads=0 / nr=0 / decimate=1 / interlaced=0 / bluray_compat=0 / constrained_intra=0 / bframes=3 / b_pyramid=2 / b_adapt=2 / b_bias=0 / direct=3 / weightb=1 / open_gop=0 / weightp=2 / keyint=240 / keyint_min=24 / scenecut=40 / intra_refresh=0 / rc_lookahead=50 / rc=2pass / mbtree=1 / bitrate=8695 / ratetol=1.0 / qcomp=0.60 / qpmin=0 / qpmax=69 / qpstep=4 / cplxblur=20.0 / qblur=0.5 / ip_ratio=1.40 / aq=1:1.00
Язык : English
Default : Да
Forced : Нет
Аудио
Идентификатор : 2
Формат : DTS
Формат/Информация : Digital Theater Systems
Режим : 16
Параметр Endianness формата : Big
Идентификатор кодека : A_DTS
Продолжительность : 2 ч. 18 м.
Вид битрейта : Постоянный
Битрейт : 1509 Кбит/сек
Каналы : 6 каналов
Расположение каналов : Front: L C R, Side: L R, LFE
Частота : 48,0 КГц
Битовая глубина : 24 бит
Метод сжатия : С потерями
Размер потока : 1,45 Гбайт (15%)
Язык : English
Default : Да
Forced : Нет
Текст
Идентификатор : 3
Формат : ASS
Идентификатор кодека : S_TEXT/ASS
Идентификатор кодека/Информация : Advanced Sub Station Alpha
Метод сжатия : Без потерь
Язык : Russian
Default : Да
Forced : Нет
Меню
00:00:00.000 : en:00:00:00.000
00:07:01.671 : en:00:07:01.671
00:22:01.028 : en:00:22:01.028
00:28:57.069 : en:00:28:57.069
00:39:25.655 : en:00:39:25.655
00:46:50.307 : en:00:46:50.307
00:55:50.055 : en:00:55:50.055
00:59:18.597 : en:00:59:18.597
01:08:42.827 : en:01:08:42.827
01:19:46.532 : en:01:19:46.532
01:26:13.418 : en:01:26:13.418
01:36:50.805 : en:01:36:50.805
01:41:46.600 : en:01:41:46.600
01:48:14.613 : en:01:48:14.613
01:56:05.917 : en:01:56:05.917
02:03:23.896 : en:02:03:23.896
-Формат: MKV
Видео кодек: AVC
Аудио кодек: DTS
Субтитры: Russian (ASS)
Видео: 1920x816 (2.35:1), 23.976 fps, AVC, 8 695 Kbps
Аудио #1: DTS, 1 510 Kbps, 48.0 KHz, 6 ch

Знаете ли Вы, что...

· Роль одного из спецназовцев играет фанат фильма, выигравший в конкурсе на официальном сайте.
· Джимми «Fat Hand» Джексон, который упоминается в финальных титрах, был давним другом Троя Даффи и барабанщиком в группе Boondock Saints, он боролся с опухолью головного мозга и ему было сделано много хирургических операций. После съемок фильма, были проданы гильзы от пуль, а вырученные деньги были переданы ему на медицинские расходы.
· Песня, звучавшая во время боя мексиканца Ромео с французом на корабле — «Mongoose» группы «Fu Manchu».

Скриншоты

Скачать

Скачать торрент!

Как скачивать? · Что такое торрент? · Рейтинг и ограничения

Сайт не распространяет и не хранит электронные версии произведений, а лишь предоставляет доступ к создаваемому пользователями каталогу ссылок на торрент-файлы, которые содержат только списки хеш-сумм

[Профиль] [ЛС]
Показать сообщения:    
Ответить на тему

Текущее время: Сегодня 12:12

Часовой пояс: GMT + 4



Вы не можете начинать темы
Вы не можете отвечать на сообщения
Вы не можете редактировать свои сообщения
Вы не можете удалять свои сообщения
Вы не можете голосовать в опросах
Вы не можете прикреплять файлы к сообщениям
Вы не можете скачивать файлы