Тринадцатый этаж / 13-ый этаж / The Thirteenth Floor (Джозеф Руснак /Josef Rusnak) [1999 г., Германия, США, фантастический триллер, BDRip 1080p] Dub + DVO + Original + Subs (Rus, Eng)

Ответить на тему
 
Автор Сообщение

user ®

Стаж: 7 лет 7 месяцев

Сообщений: 20008

Пост Пост: #1 от 21-Янв-2014 23:50

[Цитировать]

--Тринадцатый этаж / 13-ый этаж / The Thirteenth Floor«Question reality. You can go there even though it doesn't exist.»- -Год выпуска: 1999
Страна: Германия, США
Жанр: фантастический триллер
Продолжительность: 01:40:30
Перевод №1: Профессиональный (дублированный )
Перевод №2: Профессиональный (двухголосый закадровый, R5 И.Тарадайкин и Л.Германова)
Перевод №3: Авторский (одноголосый закадровый, Ю.Живов)
Субтитры: Русские, Английские-Режиссер: Джозеф Руснак /Josef Rusnak
Сценарий: Джозеф Руснак /Josef Rusnak, Равель Сентено-Родригес / Ravel Centeno-Rodriguez, Дэниэл Ф. Галуйе / Daniel F. Galouye
Продюсер: Роланд Эммерих / Roland Emmerich, Уте Эммерих / Ute Emmerich, Марко Вебер / Marco Weber, Хельга Баллхаус / Helga Ballhaus, Михаэль Балльхаус / Michael Ballhaus, Келли Ван Хорн / Kelly Van Horn
Оператор: Ведиго фон Шульцендорфф / Wedigo von Schultzendorff
Композитор: Харальд Клозер / Harald Kloser
В ролях: Крэйг Бирко (Douglas Hall / John Ferguson / David), Гретхен Мол (Jane Fuller / Natasha Molinaro), Армин Мюллер-Шталь (Hannon Fuller / Grierson), Винсент Д'Онофрио (Jason Whitney / Jerry Ashton), Деннис Хейсбёрт (Detective Larry McBain), Стивен Шуб (Detective Zev Bernstein)-Описание: На тринадцатом этаже компьютерной корпорации была разработана совершенная модель виртуальной реальности, создание которой повлекло за собой цепь таинственных убийств. Разгадать загадку можно, лишь погрузившись в иное измерение, где может быть ответ на многие вопросы, а может быть — страшная нереальность...- -Качество: Blu-ray Rip 1080p
Формат: MKV
Видео: MPEG-4 AVC (H264), High Profile 4.1, 1920x800, 23.976 fps, ~17700 kbps avg, bit/(pixel*frame) 0.481
Аудио №1: Russian: 48 kHz, DTS, 3/2 (L,C,R,l,r) + LFE ch, ~1510.00 kbps avg //дубляж
Аудио №2: Russian: 48 kHz, AC3, 3/2 (L,C,R,l,r) + LFE ch, 384.00 kbps avg //двухголосый закадровый (R5 И.Тарадайкин и Л.Германова)
Аудио №3: Russian: 48 kHz, AC3, 3/2 (L,C,R,l,r) + LFE ch, ~448.00 kbps avg //одноголосый (закадровый, Ю.Живов)
Аудио №4: English: 48 kHz, DTS, 3/2 (L,C,R,l,r) + LFE ch, ~1510.00 kbps avg //оригинал
Аудио №5: English: 48 kHz, AC3, 2.0 (L,R) ch, ~192.00 kbps avg //commentary by Josef Rusnak
Субтитры: Russian, English (Softsub SRT)
Навигация по главам: есть-

Скриншоты

Blu-Ray vs Rip





MediaInfo

F:\The Thirteenth Floor [Тринадцатый этаж] (1999) 1920x800 BDRip RusEngSubsChpt.mkv
General
Unique ID : 192710214761532088894146426725246045943 (0x90FAA32764D5A11C9961B82982220EF7)
Complete name : F:\The Thirteenth Floor [Тринадцатый этаж] (1999) 1920x800 BDRip RusEngSubsChpt.mkv
Format : Matroska
Format version : Version 4 / Version 2
File size : 15.3 GiB
Duration : 1h 40mn
Overall bit rate : 21.7 Mbps
Movie name : -=RbM=-
Encoded date : UTC 2014-01-21 12:41:41
Writing application : mkvmerge v6.7.0 ('Back to the Ground') 64bit built on Jan 8 2014 15:10:52
Writing library : libebml v1.3.0 + libmatroska v1.4.1
Video #1
ID : 1
Format : AVC
Format/Info : Advanced Video Codec
Format profile : High@L4.1
Format settings, CABAC : Yes
Format settings, ReFrames : 5 frames
Codec ID : V_MPEG4/ISO/AVC
Duration : 1h 40mn
Bit rate : 17.7 Mbps
Width : 1 920 pixels
Height : 800 pixels
Display aspect ratio : 2.40:1
Frame rate mode : Constant
Frame rate : 23.976 fps
Color space : YUV
Chroma subsampling : 4:2:0
Bit depth : 8 bits
Scan type : Progressive
Bits/(Pixel*Frame) : 0.481
Stream size : 12.1 GiB (79%)
Title : 70% of the original
Writing library : x264 core 140 r2377+40 929f149 tMod [8-bit@all X86_64]
Encoding settings : cabac=1 / ref=5 / deblock=1:-3:-2 / analyse=0x3:0x133 / me=umh / subme=11 / psy=1 / fade_compensate=0.00 / psy_rd=1.10:0.15 / mixed_ref=1 / me_range=32 / chroma_me=1 / trellis=2 / 8x8dct=1 / cqm=0 / deadzone=21,11 / fast_pskip=0 / chroma_qp_offset=-3 / threads=12 / lookahead_threads=3 / sliced_threads=0 / nr=0 / decimate=0 / interlaced=0 / bluray_compat=0 / constrained_intra=0 / fgo=0 / bframes=11 / b_pyramid=2 / b_adapt=2 / b_bias=0 / direct=3 / weightb=1 / open_gop=0 / weightp=2 / keyint=250 / keyint_min=23 / scenecut=40 / intra_refresh=0 / rc_lookahead=80 / rc=2pass / mbtree=1 / bitrate=17700 / ratetol=1.0 / qcomp=0.70 / qpmin=0:0:0 / qpmax=69:69:69 / qpstep=4 / cplxblur=20.0 / qblur=0.5 / ip_ratio=1.40 / aq=3:0.60 / aq-sensitivity=10.00 / aq-factor=1.00:1.00:1.00 / aq2=0 / aq3=0 / zones=139560,144576,q=40
Language : English
Default : Yes
Forced : No
Audio #2
ID : 2
Format : DTS
Format/Info : Digital Theater Systems
Mode : 16
Format settings, Endianness : Big
Codec ID : A_DTS
Duration : 1h 40mn
Bit rate mode : Constant
Bit rate : 1 509 Kbps
Channel count : 6 channels
Channel positions : Front: L C R, Side: L R, LFE
Sampling rate : 48.0 KHz
Bit depth : 16 bits
Compression mode : Lossy
Stream size : 1.06 GiB (7%)
Title : Dub DTS 5.1ch 1510kbps
Language : Russian
Default : Yes
Forced : No
Audio #3
ID : 3
Format : AC-3
Format/Info : Audio Coding 3
Mode extension : CM (complete main)
Format settings, Endianness : Big
Codec ID : A_AC3
Duration : 1h 40mn
Bit rate mode : Constant
Bit rate : 384 Kbps
Channel count : 6 channels
Channel positions : Front: L C R, Side: L R, LFE
Sampling rate : 48.0 KHz
Bit depth : 16 bits
Compression mode : Lossy
Stream size : 276 MiB (2%)
Title : DVO AC3 5.1ch 384kbps (R5 И.Тарадайкин и Л.Германова)
Language : Russian
Default : No
Forced : No
Audio #4
ID : 4
Format : AC-3
Format/Info : Audio Coding 3
Mode extension : CM (complete main)
Format settings, Endianness : Big
Codec ID : A_AC3
Duration : 1h 40mn
Bit rate mode : Constant
Bit rate : 448 Kbps
Channel count : 6 channels
Channel positions : Front: L C R, Side: L R, LFE
Sampling rate : 48.0 KHz
Bit depth : 16 bits
Compression mode : Lossy
Stream size : 322 MiB (2%)
Title : AVO AC3 5.1ch 448kbps
Language : Russian
Default : No
Forced : No
Audio #5
ID : 5
Format : DTS
Format/Info : Digital Theater Systems
Mode : 16
Format settings, Endianness : Big
Codec ID : A_DTS
Duration : 1h 40mn
Bit rate mode : Constant
Bit rate : 1 509 Kbps
Channel count : 6 channels
Channel positions : Front: L C R, Side: L R, LFE
Sampling rate : 48.0 KHz
Bit depth : 16 bits
Compression mode : Lossy
Stream size : 1.06 GiB (7%)
Title : Original DTS 5.1ch 1510kbps
Language : English
Default : No
Forced : No
Audio #6
ID : 6
Format : AC-3
Format/Info : Audio Coding 3
Format profile : Dolby Digital
Mode extension : CM (complete main)
Format settings, Endianness : Big
Codec ID : A_AC3
Duration : 1h 40mn
Bit rate mode : Constant
Bit rate : 192 Kbps
Channel count : 2 channels
Channel positions : Front: L R
Sampling rate : 48.0 KHz
Bit depth : 16 bits
Compression mode : Lossy
Stream size : 138 MiB (1%)
Title : AC3 2.0ch 192kbps (commentary by Josef Rusnak)
Language : English
Default : No
Forced : No
Text #7
ID : 7
Format : UTF-8
Codec ID : S_TEXT/UTF8
Codec ID/Info : UTF-8 Plain Text
Language : Russian
Default : No
Forced : No
Text #8
ID : 8
Format : UTF-8
Codec ID : S_TEXT/UTF8
Codec ID/Info : UTF-8 Plain Text
Language : English
Default : No
Forced : No
Menu
00:00:00.000 : en:Start
00:06:51.702 : en:Fuller Stumbles
00:12:55.649 : en:Detective McBain
00:19:57.321 : en:Jane Fuller
00:28:39.634 : en:Jason Whitney
00:36:42.909 : en:Hall is Confronted
00:42:00.017 : en:Consciousness Transfer
00:46:25.532 : en:Download Completed
00:51:46.853 : en:Grierson's Antique Store
00:59:19.472 : en:Wilshire Grand Hotel
01:03:10.870 : en:Connection Terminated
01:09:22.032 : en:Tom Jones
01:17:07.164 : en:Deja vu
01:22:25.982 : en:Under Arrest
01:28:17.125 : en:Douglas' Alibi
01:34:09.977 : en:Grierson's Memory

x264 log

x264 [info]: frame I:804 Avg QP:15.44 size:203024 PSNR Mean Y:49.16 U:51.25 V:53.11 Avg:49.90 Global:48.87
x264 [info]: frame P:29540 Avg QP:17.89 size:112263 PSNR Mean Y:46.82 U:49.40 V:51.85 Avg:47.66 Global:47.14
x264 [info]: frame B:114232 Avg QP:17.34 size: 86231 PSNR Mean Y:46.73 U:49.19 V:51.82 Avg:47.51 Global:47.00
x264 [info]: consecutive B-frames: 2.3% 2.4% 5.1% 12.2% 18.0% 39.0% 8.8% 7.8% 1.9% 0.5% 0.9% 1.1%
x264 [info]: mb I I16..4: 12.1% 70.7% 17.2%
x264 [info]: mb P I16..4: 1.3% 25.2% 2.1% P16..4: 22.8% 31.3% 9.8% 2.0% 0.1% skip: 5.2%
x264 [info]: mb B I16..4: 0.4% 7.6% 0.4% B16..8: 36.3% 28.9% 6.0% direct:12.2% skip: 8.3% L0:41.7% L1:34.2% BI:24.1%
x264 [info]: 8x8 transform intra:88.9% inter:30.7%
x264 [info]: direct mvs spatial:98.9% temporal:1.1%
x264 [info]: coded y,uvDC,uvAC intra: 98.3% 92.9% 84.7% inter: 70.0% 58.2% 37.1%
x264 [info]: i16 v,h,dc,p: 13% 4% 22% 60%
x264 [info]: i8 v,h,dc,ddl,ddr,vr,hd,vl,hu: 9% 7% 14% 10% 13% 12% 11% 12% 12%
x264 [info]: i4 v,h,dc,ddl,ddr,vr,hd,vl,hu: 10% 8% 6% 9% 15% 14% 13% 11% 13%
x264 [info]: i8c dc,h,v,p: 60% 13% 13% 14%
x264 [info]: Weighted P-Frames: Y:4.5% UV:2.2%
x264 [info]: ref P L0: 42.7% 7.7% 25.4% 11.9% 11.0% 1.2% 0.1%
x264 [info]: ref B L0: 73.6% 19.0% 5.8% 1.5%
x264 [info]: ref B L1: 90.5% 9.5%
x264 [info]: SSIM Mean Y:0.9813789 (17.300db)
x264 [info]: PSNR Mean Y:46.761 U:49.245 V:51.831 Avg:47.555 Global:47.039 kb/s:17684.63
x264 [info]: encoded 144576 frames, 5.254 fps, 17684.63 kb/s, 12712 MB
x264 [info]: ended at Mon Jan 20 14:58:37 2014
x264 [info]: encoding duration 7:38:38
Скачать

Скачать торрент!

Как скачивать? · Что такое торрент? · Рейтинг и ограничения

Сайт не распространяет и не хранит электронные версии произведений, а лишь предоставляет доступ к создаваемому пользователями каталогу ссылок на торрент-файлы, которые содержат только списки хеш-сумм

[Профиль] [ЛС]
Показать сообщения:    
Ответить на тему

Текущее время: Сегодня 10:05

Часовой пояс: GMT + 4



Вы не можете начинать темы
Вы не можете отвечать на сообщения
Вы не можете редактировать свои сообщения
Вы не можете удалять свои сообщения
Вы не можете голосовать в опросах
Вы не можете прикреплять файлы к сообщениям
Вы не можете скачивать файлы