Маленький разносчик / Малыш Чунг / Little Cheung / Xilu xiang (Фрут Чан / Fruit Chan) [2000, Гонконг, драма, DVDRip] Sub Rus + Orig Chin

Ответить на тему
 
Автор Сообщение

user ®

Стаж: 13 лет

Сообщений: 15071

Пост Пост: #1 от 20-Янв-2014 22:05

[Цитировать]

Маленький разносчик / Малыш Чунг / Little Cheung / Xilu xiang
Страна: Гонконг
Жанр: драма
Год выпуска: 2000
Продолжительность: 01:41:41
Перевод: Субтитры (asatorios)
Cубтитры: русские
Оригинальная аудиодорожка: китайский
Режиссер: Фрут Чан / Fruit Chan
В ролях: Ют-Мин Ю, Вай-Фан Мак, Ют-Ман Мак, Робби, Сун-Яо Чу, Гари Лай, Тео Чан и др.
Описание: Малыш Чунг помогает родителям управляться с семейным ресторанчиком; последние дни колониального Гонконга глазами девятилетнего мальчика.
Доп. информация: Информация о фильме на IMDB - http://www.imdb.com/title/tt0234116
Релиз кинопортала Близзардкид.
Сэмпл: http://multi-up.com/942320
Качество видео: DVDRip
Формат видео: AVI
Видео: 720x384 (1.88:1), 25 fps, XviD MPEG-4 ~1725 kbps avg, 0.25 bit/pixel
Аудио: 48 kHz, MPEG Layer 3, 2 ch, ~192.00 kbps avg
Формат субтитров: softsub (SRT)

MediaInfo

Общее
Полное имя : H:\SEED\Little Cheung (1999) rus\Little Cheung (1999) rus.avi
Формат : AVI
Формат/Информация : Audio Video Interleave
Размер файла : 1,37 Гбайт
Продолжительность : 1 ч. 41 м.
Общий поток : 1924 Кбит/сек
Программа кодирования : VirtualDubMod 1.5.4.1 (build 2178/release)
Библиотека кодирования : VirtualDubMod build 2178/release
Видео
Идентификатор : 0
Формат : MPEG-4 Visual
Профиль формата : Advanced Simple@L5
Параметр BVOP формата : 1
Параметр QPel формата : Нет
Параметр GMC формата : Без точки перехода
Параметр матрицы формата : Выборочная
Идентификатор кодека : XVID
Идентификатор кодека/Подсказка : XviD
Продолжительность : 1 ч. 41 м.
Битрейт : 1725 Кбит/сек
Ширина : 720 пикселей
Высота : 384 пикселя
Соотношение сторон : 1,85:1
Частота кадров : 25,000 кадров/сек
Цветовое пространство : YUV
Субдискретизация насыщенности : 4:2:0
Битовая глубина : 8 бит
Тип развёртки : Прогрессивная
Метод сжатия : С потерями
Бит/(Пиксели*Кадры) : 0.250
Размер потока : 1,23 Гбайт (90%)
Библиотека кодирования : XviD 58
Аудио
Идентификатор : 1
Формат : MPEG Audio
Версия формата : Version 1
Профиль формата : Layer 3
Режим : Joint stereo
Расширение режима : MS Stereo
Идентификатор кодека : 55
Идентификатор кодека/Подсказка : MP3
Продолжительность : 1 ч. 41 м.
Вид битрейта : Постоянный
Битрейт : 192 Кбит/сек
Каналы : 2 канала
Частота : 48,0 КГц
Метод сжатия : С потерями
Размер потока : 140 Мбайт (10%)
Выравнивание : Соединение по промежуткам
Продолжительность промежутка : 80 мс. (2,00 видеокадра)
Время предзагрузки промежутка : 504 мс.
Библиотека кодирования : LAME3.97
Настройки программы : -m j -V 4 -q 2 -lowpass 18.6 -b 192

Образец субтитров

1
00:01:37,256 --> 00:01:40,781
Впервые я услышал его выступление,
когда мне не исполнилось и года.
2
00:01:40,846 --> 00:01:45,379
Тогда я жил с бабушкой.
3
00:01:45,412 --> 00:01:48,046
И единственное, что мы смотрели по ТВ,
было шоу Братца Чунга.
4
00:01:51,828 --> 00:01:56,217
Это моя бабушка...
А это я!
5
00:01:59,771 --> 00:02:04,764
А это, как раз та самая песня,
что я напевал с тех пор, как научился говорить.
6
00:02:07,584 --> 00:02:09,219
Поэтому все на нашей улице
зовут меня...
7
00:02:10,078 --> 00:02:12,457
Малыш Чунг.
8
00:02:18,578 --> 00:02:21,457
МАЛЫШ ЧУНГ
9
00:02:21,926 --> 00:02:23,900
Когда мне было девять лет,
я уже многое понимал.
10
00:02:24,013 --> 00:02:25,986
Что мой отец - владелец ресторана,
и это его способ заработка.
11
00:02:27,399 --> 00:02:30,765
Что наша филиппинская служанка Мармия
работает у нас только ради денег.
12
00:02:31,999 --> 00:02:34,751
Что моя мать играет в маджонг на деньги.
13
00:02:35,102 --> 00:02:40,007
И даже Братец Чунг выступает по ТВ
исключительно ради денег.
14
00:02:41,913 --> 00:02:43,313
Я, конечно, не исключение.
15
00:02:43,725 --> 00:02:46,192
Я знаю с самого раннего возраста, что...
16
00:02:47,180 --> 00:02:48,580
... деньги это мечта.
17
00:02:49,803 --> 00:02:50,654
Это фантастика,
становящаяся реальностью.
18
00:02:51,624 --> 00:02:52,652
И это гарантия будущего.
19
00:02:55,039 --> 00:03:01,595
Вообще, на нашей улице
живут довольно предприимчивые люди.
20
00:03:19,264 --> 00:03:20,840
А, вот и вы! Ну, и что вы хотели?

Скриншот c названием фильма

Скриншоты

Скачать

Скачать торрент! Маленький разносчик / Малыш Чунг / Little Cheung / Xilu xiang (Фрут Чан / Fruit Chan) [2000, Гонконг, драма, DVDRip] Sub Rus + Orig Chin

Как скачивать? · Что такое торрент? · Рейтинг и ограничения

Сайт не распространяет и не хранит электронные версии произведений, а лишь предоставляет доступ к создаваемому пользователями каталогу ссылок на торрент-файлы, которые содержат только списки хеш-сумм

[Профиль] [ЛС]
Показать сообщения:    
Ответить на тему

Текущее время: Сегодня 18:27

Часовой пояс: GMT + 4



Вы не можете начинать темы
Вы не можете отвечать на сообщения
Вы не можете редактировать свои сообщения
Вы не можете удалять свои сообщения
Вы не можете голосовать в опросах
Вы не можете прикреплять файлы к сообщениям
Вы не можете скачивать файлы