Грейстоук: Легенда о Тарзане, повелителе обезьян / Greystoke: The Legend of Tarzan, Lord of the Apes (Хью Хадсон / Hugh Hudson) [1984, США, драма, мелодрама, приключения, BDRip 720p] Dub (Варус-Видео) + MVO + AVO + Sub Rus, Eng + Original Eng

Ответить на тему
 
Автор Сообщение

user ®

Стаж: 7 лет 7 месяцев

Сообщений: 20008

Пост Пост: #1 от 19-Янв-2014 04:00

[Цитировать]

Грейстоук: Легенда о Тарзане, повелителе обезьян
Greystoke: The Legend of Tarzan, Lord of the Apes
Страна: США
Жанр: драма, мелодрама, приключения
Год выпуска: 1984
Продолжительность: 02:17:00
Перевод: Профессиональный (дублированный) | Варус-Видео |
Перевод 2: Профессиональный (многоголосый закадровый)
Перевод 3: Авторский (закадровый) | Алексей Михалёв |
Cубтитры: Русские, Английские
Оригинальная аудиодорожка: английский
Режиссер: Хью Хадсон / Hugh Hudson
В ролях: Кристофер Ламберт, Энди МакДауэлл, Ральф Ричардсон, Иэн Холм, Джеймс Фокс, Шерил Кэмпбелл, Иэн Чарлсон, Найджел Девенпорт, Николас Фэррел, Пол Джефри
Описание: Мальчик, выросший среди диких обезьян, возвращается к людям, чтобы заявить свои права на жизнь среди людей. Удивительная сага о Тарзане, созданная писателем Эдгаром Райсом Берроузом, - это волнующий рассказ о столкновении двух миров, дикого и цивилизованного.
Сэмпл: http://yadi.sk/d/kzvZ2OT0GDSux
Тип релиза: BDRip 720p
Контейнер: MKV
Видео: MPEG-4 AVC Video, 10,1 Мбит/с, 1280x534 (2,35:1),23.976 кадра / сек
Аудио: Russian, 192 Кбит/сек, 48.0 КГц, 2 каналов, 16 бит, AC3 |Дубляж Варус-Видео|
Аудио 2: Russian, 192 Кбит/сек, 48.0 КГц, 2 каналов, 16 бит, AC3 |Многоголосый закадровый|
Аудио 3: Russian, 1509 Кбит/сек, 48.0 КГц, 6 каналов, 24 bits, DTS |Авторский одноголосый - А.Михалёв|
Аудио 4: English, 1509 Кбит/сек, 48.0 КГц, 6 каналов, 24 bits, DTS
Формат субтитров: softsub (SRT)
Сравнение с исходником : http://screenshotcomparison.com/comparison/57907

Дополнительно:

  • Сохранены оригинальные чаптеры как на Blu-ray.
  • Дорожка №3 получена наложением чистого голоса на центр оригинальной дорожки.
  • За чистый голос А.Михалева спасибо Администрации ШДклаба , а именно - sergey_n.
  • Синхронизация дорожек и наложения голоса А.Михалева - Anoobis, за что ему большое спасибо !

MediaInfo + Лог кодировки

Information: Standard error stream
- avs [info]: 1280x534p 1:1 @ 24000/1001 fps (cfr)
- x264 [info]: using SAR=1/1
- x264 [info]: using cpu capabilities: MMX2 SSE2Fast SSSE3 SSE4.2 AVX
- x264 [info]: profile High, level 4.1
- x264 [info]: frame I:1426 Avg QP:14.97 size:146513
- x264 [info]: frame P:39654 Avg QP:16.47 size: 76145
- x264 [info]: frame B:156009 Avg QP:18.08 size: 45994
- x264 [info]: consecutive B-frames: 1.7% 2.8% 4.6% 17.9% 17.1% 30.8% 10.5% 6.7% 4.3% 2.1% 1.6%
- x264 [info]: mb I I16..4: 0.7% 81.7% 17.6%
- x264 [info]: mb P I16..4: 0.1% 20.7% 1.8% P16..4: 25.2% 27.5% 22.2% 1.3% 0.3% skip: 0.9%
- x264 [info]: mb B I16..4: 0.0% 5.3% 0.3% B16..8: 33.5% 22.8% 10.8% direct:18.4% skip: 8.8% L0:43.0% L1:32.3% BI:24.7%
- x264 [info]: 8x8 transform intra:91.9% inter:55.2%
- x264 [info]: direct mvs spatial:96.0% temporal:4.0%
- x264 [info]: coded y,uvDC,uvAC intra: 98.7% 96.5% 89.6% inter: 71.1% 47.6% 17.5%
- x264 [info]: i16 v,h,dc,p: 54% 8% 13% 26%
- x264 [info]: i8 v,h,dc,ddl,ddr,vr,hd,vl,hu: 12% 8% 12% 9% 12% 11% 11% 11% 12%
- x264 [info]: i4 v,h,dc,ddl,ddr,vr,hd,vl,hu: 21% 7% 4% 9% 14% 13% 12% 11% 11%
- x264 [info]: i8c dc,h,v,p: 57% 13% 14% 16%
- x264 [info]: Weighted P-Frames: Y:6.8% UV:1.8%
- x264 [info]: ref P L0: 36.0% 10.0% 17.5% 7.8% 7.1% 4.9% 4.8% 2.7% 2.8% 2.1% 2.2% 1.8% 0.2% 0.0%
- x264 [info]: ref B L0: 62.4% 13.7% 7.1% 4.4% 3.2% 2.9% 2.3% 1.6% 1.4% 0.8% 0.3%
- x264 [info]: ref B L1: 91.1% 8.9%
- x264 [info]: kb/s:10125.15
- encoded 197089 frames, 3.61 fps, 10125.15 kb/s

MI:
Уникальный идентификатор : 190682451029747519554112410279539179923 (0x8F741AAEDD8B4186BA0443FA24D10193)
Полное имя : D:\торрент\Grejstok.Legenda.o.Tarzane.povelitele.obezyan.1984.BDRip.720p.mkv
Формат : Matroska
Версия формата : Version 4 / Version 2
Размер файла : 12,9 Гбайт
Продолжительность : 2 ч. 17 м.
Общий поток : 13,5 Мбит/сек
Дата кодирования : UTC 2014-01-15 10:42:00
Программа кодирования : mkvmerge v6.7.0 ('Back to the Ground') 32bit built on Jan 11 2014 19:18:54
Библиотека кодирования : libebml v1.3.0 + libmatroska v1.4.1
Видео
Идентификатор : 1
Формат : AVC
Формат/Информация : Advanced Video Codec
Профиль формата : High@L4.1
Параметр CABAC формата : Да
Параметр ReFrames формата : 12 кадров
Идентификатор кодека : V_MPEG4/ISO/AVC
Продолжительность : 2 ч. 17 м.
Битрейт : 10,1 Мбит/сек
Ширина : 1280 пикселей
Высота : 534 пикселя
Соотношение сторон : 2,40:1
Режим частоты кадров : Постоянный
Частота кадров : 23,976 кадра/сек
Цветовое пространство : YUV
Субдискретизация насыщенности : 4:2:0
Битовая глубина : 8 бит
Тип развёртки : Прогрессивная
Бит/(Пиксели*Кадры) : 0.618
Размер потока : 9,44 Гбайт (73%)
Библиотека кодирования : x264 core 140 r2377 1ca7bb9
Настройки программы : cabac=1 / ref=12 / deblock=1:-1:-1 / analyse=0x3:0x133 / me=umh / subme=10 / psy=1 / psy_rd=1.00:0.00 / mixed_ref=1 / me_range=32 / chroma_me=1 / trellis=2 / 8x8dct=1 / cqm=0 / deadzone=21,11 / fast_pskip=0 / chroma_qp_offset=-2 / threads=6 / lookahead_threads=1 / sliced_threads=0 / nr=0 / decimate=1 / interlaced=0 / bluray_compat=0 / constrained_intra=0 / bframes=10 / b_pyramid=2 / b_adapt=2 / b_bias=0 / direct=3 / weightb=1 / open_gop=0 / weightp=2 / keyint=240 / keyint_min=24 / scenecut=40 / intra_refresh=0 / rc_lookahead=40 / rc=2pass / mbtree=0 / bitrate=10125 / ratetol=1.0 / qcomp=0.70 / qpmin=0 / qpmax=69 / qpstep=4 / cplxblur=20.0 / qblur=0.5 / vbv_maxrate=50000 / vbv_bufsize=62500 / nal_hrd=none / filler=0 / ip_ratio=1.30 / pb_ratio=1.20 / aq=1:0.80
Язык : English
Default : Да
Forced : Нет
Основные цвета : BT.709
Характеристики трансфера : BT.709
Коэффициенты матрицы : BT.709
Аудио #1
Идентификатор : 2
Формат : AC-3
Формат/Информация : Audio Coding 3
Расширение режима : CM (complete main)
Параметр Endianness формата : Big
Идентификатор кодека : A_AC3
Продолжительность : 2 ч. 17 м.
Вид битрейта : Постоянный
Битрейт : 192 Кбит/сек
Каналы : 2 канала
Расположение каналов : Front: L R
Частота : 48,0 КГц
Битовая глубина : 16 бит
Метод сжатия : С потерями
Размер потока : 188 Мбайт (1%)
Заголовок : Дубляж
Язык : Russian
Default : Нет
Forced : Нет
Аудио #2
Идентификатор : 3
Формат : AC-3
Формат/Информация : Audio Coding 3
Расширение режима : CM (complete main)
Параметр Endianness формата : Big
Идентификатор кодека : A_AC3
Продолжительность : 2 ч. 17 м.
Вид битрейта : Постоянный
Битрейт : 192 Кбит/сек
Каналы : 2 канала
Расположение каналов : Front: L R
Частота : 48,0 КГц
Битовая глубина : 16 бит
Метод сжатия : С потерями
Размер потока : 188 Мбайт (1%)
Заголовок : -MVO-
Язык : Russian
Default : Нет
Forced : Нет
Аудио #3
Идентификатор : 4
Формат : DTS
Формат/Информация : Digital Theater Systems
Режим : 16
Параметр Endianness формата : Big
Идентификатор кодека : A_DTS
Продолжительность : 2 ч. 17 м.
Вид битрейта : Постоянный
Битрейт : 1509 Кбит/сек
Каналы : 6 каналов
Расположение каналов : Front: L C R, Side: L R, LFE
Частота : 48,0 КГц
Битовая глубина : 24 бит
Метод сжатия : С потерями
Размер потока : 1,44 Гбайт (11%)
Заголовок : Авторский - Михалёв
Язык : Russian
Default : Нет
Forced : Нет
Аудио #4
Идентификатор : 5
Формат : DTS
Формат/Информация : Digital Theater Systems
Режим : 16
Параметр Endianness формата : Big
Идентификатор кодека : A_DTS
Продолжительность : 2 ч. 17 м.
Вид битрейта : Постоянный
Битрейт : 1509 Кбит/сек
Каналы : 6 каналов
Расположение каналов : Front: L C R, Side: L R, LFE
Частота : 48,0 КГц
Битовая глубина : 24 бит
Метод сжатия : С потерями
Размер потока : 1,44 Гбайт (11%)
Язык : English
Default : Нет
Forced : Нет
Текст #1
Идентификатор : 6
Формат : UTF-8
Идентификатор кодека : S_TEXT/UTF8
Идентификатор кодека/Информация : UTF-8 Plain Text
Язык : Russian
Default : Нет
Forced : Нет
Текст #2
Идентификатор : 7
Формат : UTF-8
Идентификатор кодека : S_TEXT/UTF8
Идентификатор кодека/Информация : UTF-8 Plain Text
Язык : English
Default : Да
Forced : Нет
Текст #3
Идентификатор : 8
Формат : UTF-8
Идентификатор кодека : S_TEXT/UTF8
Идентификатор кодека/Информация : UTF-8 Plain Text
Заголовок : -SDH-
Язык : English
Default : Нет
Forced : Нет
Меню
00:00:00.000 : en:00:00:00.000
00:01:41.101 : en:00:01:41.101
00:03:37.926 : en:00:03:37.926
00:05:52.185 : en:00:05:52.185
00:08:40.478 : en:00:08:40.478
00:11:14.591 : en:00:11:14.591
00:16:04.839 : en:00:16:04.839
00:18:53.007 : en:00:18:53.007
00:22:55.874 : en:00:22:55.874
00:27:50.460 : en:00:27:50.460
00:32:18.854 : en:00:32:18.854
00:37:13.648 : en:00:37:13.648
00:41:54.929 : en:00:41:54.929
00:44:56.110 : en:00:44:56.110
00:49:41.312 : en:00:49:41.312
00:53:28.872 : en:00:53:28.872
00:55:54.977 : en:00:55:54.977
00:59:53.882 : en:00:59:53.882
01:04:40.502 : en:01:04:40.502
01:09:12.065 : en:01:09:12.065
01:13:34.076 : en:01:13:34.076
01:17:00.908 : en:01:17:00.908
01:20:31.410 : en:01:20:31.410
01:24:52.337 : en:01:24:52.337
01:28:47.572 : en:01:28:47.572
01:31:58.388 : en:01:31:58.388
01:34:52.020 : en:01:34:52.020
01:36:04.342 : en:01:36:04.342
01:38:31.906 : en:01:38:31.906
01:41:44.932 : en:01:41:44.932
01:46:33.262 : en:01:46:33.262
01:52:07.638 : en:01:52:07.638
01:55:25.919 : en:01:55:25.919
01:58:10.917 : en:01:58:10.917
02:05:33.735 : en:02:05:33.735
02:10:56.599 : en:02:10:56.599
02:13:18.657 : en:02:13:18.657

Скриншоты



Скачать

Скачать торрент!

Как скачивать? · Что такое торрент? · Рейтинг и ограничения

Сайт не распространяет и не хранит электронные версии произведений, а лишь предоставляет доступ к создаваемому пользователями каталогу ссылок на торрент-файлы, которые содержат только списки хеш-сумм

[Профиль] [ЛС]
Показать сообщения:    
Ответить на тему

Текущее время: Сегодня 02:17

Часовой пояс: GMT + 4



Вы не можете начинать темы
Вы не можете отвечать на сообщения
Вы не можете редактировать свои сообщения
Вы не можете удалять свои сообщения
Вы не можете голосовать в опросах
Вы не можете прикреплять файлы к сообщениям
Вы не можете скачивать файлы