Хаммер / Hammer (Брюс Д. Кларк / Bruce D. Clark) [1972, США, драма, криминал, боевик, HDTV 1080i] DVO (НТВ+)

Ответить на тему
 
Автор Сообщение

user ®

Стаж: 7 лет 7 месяцев

Сообщений: 20008

Пост Пост: #1 от 19-Янв-2014 04:00

[Цитировать]

Хаммер / Hammer
Страна: США
Студия: Essaness Productions
Жанр: драма, криминал, боевик
Год выпуска: 1972
Продолжительность: 01:27:19
Перевод: Профессиональный (двухголосый закадровый) НТВ+
Cубтитры: нет
Оригинальная аудиодорожка: нет
Режиссер: Брюс Д. Кларк / Bruce D. Clark
В ролях: Элизабет Хардинг, Д Арвиль Мартин, Вонетта МакГи, Фред Уильямсон, Берни Хэмилтон, Уильям Смит, Мел Стюарт, Чарльз Лампкин...
Описание: Хаммер - боксер, который поднимается вверх с помощью мафии. Тем не менее, он не понимает, что помощь идет с ценой: его просят бросить борьбу. Гангстеры угрожают его подруге. Хаммер придумывает способ, как спасти свою честь и жизнь своей подруги.

IMDB
Тип релиза: HDTV 1080i
Контейнер: TS
Видео: AVC 1920x1080 (16:9) 25.0fps Bit rate 6652Kbps
Аудио: MP2 48.0KHz 2ch 192 Kbps rus DVO

MediaInfo

Общее
Идентификатор : 1 (0x1)
Полное имя : E:\torrent\Hammer.1972.HDTV1080i.ts
Формат : MPEG-TS
Размер файла : 4,39 Гбайт
Продолжительность : 1 ч. 27 м.
Режим общего битрейта : Переменный
Общий поток : 7202 Кбит/сек
Видео
Идентификатор : 1606 (0x646)
Идентификатор меню : 1 (0x1)
Формат : AVC
Формат/Информация : Advanced Video Codec
Профиль формата : High@L4.0
Параметр CABAC формата : Да
Параметр ReFrames формата : 3 кадра
Параметр GOP формата : M=4, N=32
Идентификатор кодека : 27
Продолжительность : 1 ч. 27 м.
Битрейт : 6652 Кбит/сек
Ширина : 1920 пикселей
Высота : 1080 пикселей
Соотношение сторон : 16:9
Частота кадров : 25,000 кадров/сек
Стандарт вещания : Component
Цветовое пространство : YUV
Субдискретизация насыщенности : 4:2:0
Битовая глубина : 8 бит
Тип развёртки : Чересстрочная
Порядок развёртки : Верхнее поле первое
Бит/(Пиксели*Кадры) : 0.128
Размер потока : 4,06 Гбайт (92%)
Основные цвета : BT.709
Характеристики трансфера : BT.709
Коэффициенты матрицы : BT.709
Аудио
Идентификатор : 2606 (0xA2E)
Идентификатор меню : 1 (0x1)
Формат : MPEG Audio
Версия формата : Version 1
Профиль формата : Layer 2
Идентификатор кодека : 3
Продолжительность : 1 ч. 27 м.
Вид битрейта : Постоянный
Битрейт : 192 Кбит/сек
Каналы : 2 канала
Частота : 48,0 КГц
Метод сжатия : С потерями
Размер потока : 120 Мбайт (3%)
Язык : Russian

Скриншот с названием фильма

Скриншоты


Скачать

Скачать торрент!

Как скачивать? · Что такое торрент? · Рейтинг и ограничения

Сайт не распространяет и не хранит электронные версии произведений, а лишь предоставляет доступ к создаваемому пользователями каталогу ссылок на торрент-файлы, которые содержат только списки хеш-сумм

[Профиль] [ЛС]
Показать сообщения:    
Ответить на тему

Текущее время: Сегодня 13:40

Часовой пояс: GMT + 4



Вы не можете начинать темы
Вы не можете отвечать на сообщения
Вы не можете редактировать свои сообщения
Вы не можете удалять свои сообщения
Вы не можете голосовать в опросах
Вы не можете прикреплять файлы к сообщениям
Вы не можете скачивать файлы