Остров везения (Кирилл Козлов) [2013, Россия, комедия, HDRip]

Ответить на тему
 
Автор Сообщение

user ®

Стаж: 7 лет 7 месяцев

Сообщений: 20008

Пост Пост: #1 от 16-Янв-2014 22:20

[Цитировать]

Остров везения- Страна: Россия
Жанр: комедия,
Год выпуска: 2013
Продолжительность: 01:22:25-Перевод: Не требуется
Субтитры: нет
Режиссер: Кирилл Козлов
В ролях: Роман Юнусов, Светлана Ходченкова, Агния Дитковските, Анна Хилькевич, Алексей Чумаков, Татьяна Орлова, Даша Астафьева, Юлия Гришина, Александр Сазонов, Мария Кравцова, Артем Сучков, Илья Костюков-Описание: Тихоокеанский лайнер. Полуобнажённые красотки, участвующие в конкурсе красоты. Шампанское и голубой океан... О таком бывшая звезда телевидения, а ныне ведущий дешёвых свадеб, даже и не мечтал. Однако круиз мечты неожиданно прервётся цепью невероятных событий. И наш герой окажется на необитаемом острове, в окружении трёх финалисток конкурса - принципиальной стервы, паникёрши и классической блондинки.
Что делать? Ведь лишившись возможности выиграть вожделенную корону, девушки его наверняка порвут на кусочки... Значит надо продолжать конкурс! Сделав вид, что так задумано, Роман начинает представление. Он убеждает девиц, что на острове понатыканы скрытые камеры и микрофоны, шоу выводится в эфир одного из главных каналов и вся страна теперь следит за финалом конкурса красоты! И всего-то нужно пройти пару испытаний под прицелом вон того ближайшего кокоса... то есть камеры. И пока девушки включаются в соревнование, наш герой ищет путь спасения с острова...-
-

Доп. Информация

Сценарий: Святослав Савченко, Константин Трофимов
Продюсер: Георгий Малков, Сарик Андреасян, Гевонд Андреасян, Владимир Поляков, Даниил Махорт
Оператор: Сергей Дышук
Композитор: Дмитрий Носков
Бюджет: $2 000 000
Сборы в России: $4 803 665
сборы
var is_rus_box_popup = true;

Мировая премьера: 5 декабря 2013
Релиз на DVD: 14 января 2014,
«Lizard Cinema Trade»,
...

Релиз на Blu-ray: 14 января 2014,
«Lizard Cinema Trade»,
...
-Качество: HDRip
Контейнер: AVI
Видео: XviD, 720x304 (2.35:1), 1917 kbps, 24 fps, 0,365 bpp
Аудио: AC3 / 5.1 / 48 kHz / 448 kbps / 16 bit-

Знаете ли Вы, что...

  • Фильм снимался на острове Пхукет (Таиланд).

Media Info

General
Complete name : G:\0str0vok.2013.O.HDRip_1400Mb.avi
Format : AVI
Format/Info : Audio Video Interleave
File size : 1.37 GiB
Duration : 1h 22mn
Overall bit rate : 2 375 Kbps
Writing application : VirtualDubMod 1.5.10.2 (build 2540/release)
Writing library : VirtualDubMod build 2540/release
Video
ID : 0
Format : MPEG-4 Visual
Format profile : Advanced Simple@L5
Format settings, BVOP : 2
Format settings, QPel : No
Format settings, GMC : No warppoints
Format settings, Matrix : Custom
Codec ID : XVID
Codec ID/Hint : XviD
Duration : 1h 22mn
Bit rate : 1 918 Kbps
Width : 720 pixels
Height : 304 pixels
Display aspect ratio : 2.35:1
Frame rate : 24.000 fps
Color space : YUV
Chroma subsampling : 4:2:0
Bit depth : 8 bits
Scan type : Progressive
Compression mode : Lossy
Bits/(Pixel*Frame) : 0.365
Stream size : 1.10 GiB (81%)
Writing library : XviD 1.2.1 (UTC 2008-12-04)
Audio
ID : 1
Format : AC-3
Format/Info : Audio Coding 3
Mode extension : CM (complete main)
Codec ID : 2000
Duration : 1h 22mn
Bit rate mode : Constant
Bit rate : 448 Kbps
Channel(s) : 6 channels
Channel positions : Front: L C R, Side: L R, LFE
Sampling rate : 48.0 KHz
Bit depth : 16 bits
Compression mode : Lossy
Stream size : 264 MiB (19%)
Alignment : Split accross interleaves
Interleave, duration : 42 ms (1.00 video frame)
Interleave, preload duration : 500 ms

Скриншот с названием фильма

[img]
[/url]

Скриншоты

[url=http://i59.fastpic.ru/big/2014/0116/f0/c7886f43c1edf000ada98f41fe147ef0.png] [url=http://i59.fastpic.ru/big/2014/0116/44/1327dfb5cb9c0b14c491b9fd467ac144.png]
Скачать

Скачать торрент!

Как скачивать? · Что такое торрент? · Рейтинг и ограничения

Сайт не распространяет и не хранит электронные версии произведений, а лишь предоставляет доступ к создаваемому пользователями каталогу ссылок на торрент-файлы, которые содержат только списки хеш-сумм

[Профиль] [ЛС]

Valdemar-olvi

Пол:

Стаж: 4 года

Сообщений: 9

Откуда: Украина

Пост Пост: #2 от 22-Янв-2014 19:25 (спустя 5 дней)

[Цитировать]

Спасибо за раздачу, посмотрим!!!
[Профиль] [ЛС]
Показать сообщения:    
Ответить на тему

Текущее время: Сегодня 21:21

Часовой пояс: GMT + 4



Вы не можете начинать темы
Вы не можете отвечать на сообщения
Вы не можете редактировать свои сообщения
Вы не можете удалять свои сообщения
Вы не можете голосовать в опросах
Вы не можете прикреплять файлы к сообщениям
Вы не можете скачивать файлы