Месть снежной королевы / The Snow Queen\'s Revenge (Мартин Гэйтс / Martin Gates) [1996 г., мультфильм, SATRip] DUB (Первый канал)

Ответить на тему
 
Автор Сообщение

user ®

Стаж: 13 лет

Сообщений: 15041

Пост Пост: #1 от 16-Янв-2014 01:30

[Цитировать]

Месть снежной королевы / The Snow Queen's Revenge

Год выпуска: 1996
Страна: Великобритания, Martin Gates Productions
Жанр: мультфильм
Продолжительность: 01:03:02
Перевод: Профессиональный (дублированный) по заказу ЗАО «Первый канал. Всемирная сеть»
Русские субтитры: нет
Режиссёр: Мартин Гэйтс / Martin Gates
Описание: Продолжение мультфильма "Снежная королева" о приключениях Элли и ее друзей. Снежная королева мечтает отомстить. Чтобы избавиться от злой волшебницы, девочка опять отправляется в царство холода. В пути ей помогают огромная птица, маленький воробей и сказочный талисман, сама природа восстает против ледяной колдуньи.


Трансляция спутникового канала: | Семпл-Качество: SATRip
Формат: AVI
Видео: 688x448 (1.54:1), 25 fps, XviD build 65 ~2297 kbps avg, 0.30 bit/pixel
Аудио: 48 kHz, AC3 Dolby Digital, 2/0 (L,R) ch, ~192 kbps

MediaInfo

GeneralComplete name : Mest.snejnoy.korolevy.1996_Olu6ka.aviFormat : AVIFormat/Info : Audio Video InterleaveFile size : 1.10 GiBDuration : 1h 3mnOverall bit rate : 2 500 KbpsWriting application : VirtualDubMod 1.5.10.3Writing library : VirtualDubMod build 2550/release
VideoID : 0Format : MPEG-4 VisualFormat profile : Advanced Simple@L5Format settings, BVOP : 1Format settings, QPel : NoFormat settings, GMC : No warppointsFormat settings, Matrix : CustomCodec ID : XVIDCodec ID/Hint : XviDDuration : 1h 3mnBit rate : 2 298 KbpsWidth : 688 pixelsHeight : 448 pixelsDisplay aspect ratio : 3:2Frame rate : 25.000 fpsColor space : YUVChroma subsampling : 4:2:0Bit depth : 8 bitsScan type : ProgressiveCompression mode : LossyBits/(Pixel*Frame) : 0.298Stream size : 1.01 GiB (92%)Writing library : XviD 65
AudioID : 1Format : AC-3Format/Info : Audio Coding 3Mode extension : CM (complete main)Format settings, Endianness : BigCodec ID : 2000Duration : 1h 3mnBit rate mode : ConstantBit rate : 192 KbpsChannel count : 2 channelsChannel positions : Front: L RSampling rate : 48.0 KHzBit depth : 16 bitsCompression mode : LossyStream size : 86.6 MiB (8%)Alignment : Split accross interleavesInterleave, duration : 40 ms (1.00 video frame)Interleave, preload duration : 500 ms
Скачать

Скачать торрент! Месть снежной королевы / The Snow Queen\'s Revenge (Мартин Гэйтс / Martin Gates) [1996 г., мультфильм, SATRip] DUB (Первый канал)

Как скачивать? · Что такое торрент? · Рейтинг и ограничения

Сайт не распространяет и не хранит электронные версии произведений, а лишь предоставляет доступ к создаваемому пользователями каталогу ссылок на торрент-файлы, которые содержат только списки хеш-сумм

[Профиль] [ЛС]
Показать сообщения:    
Ответить на тему

Текущее время: Сегодня 19:09

Часовой пояс: GMT + 4



Вы не можете начинать темы
Вы не можете отвечать на сообщения
Вы не можете редактировать свои сообщения
Вы не можете удалять свои сообщения
Вы не можете голосовать в опросах
Вы не можете прикреплять файлы к сообщениям
Вы не можете скачивать файлы