Гараж (Эльдар Рязанов) [1979, Комедия, DVDRip-AVC]

Ответить на тему
 
Автор Сообщение

user ®

Стаж: 7 лет 7 месяцев

Сообщений: 20008

Пост Пост: #1 от 16-Янв-2014 01:30

[Цитировать]

Гараж
Жанр: Комедия
Год выпуска: 1979
Продолжительность: 01:35:35
Режиссёр: Эльдар Рязанов
В ролях: Лия Ахеджакова, Ия Саввина, Светлана Немоляева, Валентин Гафт, Андрей Мягков, Георгий Бурков, Леонид Марков, Вячеслав Невинный, Анастасия Вознесенская, Семен Фарада, Игорь Костолевский, Ольга Остроумова, Глеб Стриженов, Борислав Брондуков, Наталья Гурзо, Алла Будницкая, Вадим Захарченко, Михаил Кокшенов, Эдьдар Рязанов
Описание: Когда за дело берется талантливый кинематографический ансамбль, даже обычное собрание членов гаражностроительного кооператива превращается в уморительно смешное и весьма поучительное зрелище. Мирная поначалу атмосфера начинает стремительно накаляться, когда выясняется, что некоторых пайщиков придется исключить. Что тут началось! Впрочем, пересказать это невозомжно: смотрите сами, не пожалеете...
Качество видео: DVDRip-AVC
Формат видео: MKV
Видео: 714x556@762x556,(1.37:1), 25 fps, AVC, ~1950 Kbps
Аудио: 48Hz, AC3, 1 ch, 224 kbps

MediaInfo

raw [info]: 714x556p 16:15 @ 25/1 fps (cfr)
x264 [info]: using SAR=16/15
x264 [info]: using cpu capabilities: MMX2 SSE2Fast SSSE3 SSE4.2 AVX
x264 [info]: profile High, level 4.1
x264 [info]: frame I:975 Avg QP:19.42 size: 54394
x264 [info]: frame P:29006 Avg QP:22.42 size: 21479
x264 [info]: frame B:113416 Avg QP:24.89 size: 6367-Общее
Уникальный идентификатор : 189262142833166109518392400672505915207 (0x8E6290151C6CF58B98207E5A72CEE747)
Полное имя : F:\DVD\Гараж_1979-DVDRip-AVC.mkv
Формат : Matroska
Версия формата : Version 4 / Version 2
Размер файла : 1,45 Гбайт
Продолжительность : 1 ч. 35 м.
Общий поток : 2176 Кбит/сек
Дата кодирования : UTC 2014-01-15 19:47:15
Программа кодирования : mkvmerge v6.1.0 ('Old Devil') built on Mar 4 2013 09:10:42
Библиотека кодирования : libebml v1.3.0 + libmatroska v1.4.0
Видео
Идентификатор : 1
Формат : AVC
Формат/Информация : Advanced Video Codec
Профиль формата : High@L4.1
Параметр CABAC формата : Да
Параметр ReFrames формата : 14 кадров
Идентификатор кодека : V_MPEG4/ISO/AVC
Продолжительность : 1 ч. 35 м.
Битрейт : 1950 Кбит/сек
Ширина : 714 пикселей
Высота : 556 пикселей
Соотношение сторон : 1,371
Соотношение сторон в оригинале : 1,370
Режим частоты кадров : Постоянный
Частота кадров : 25,000 кадров/сек
Цветовое пространство : YUV
Субдискретизация насыщенности : 4:2:0
Битовая глубина : 8 бит
Тип развёртки : Прогрессивная
Бит/(Пиксели*Кадры) : 0.196
Размер потока : 1,27 Гбайт (88%)
Библиотека кодирования : x264 core 133 r2334 a3ac64b
Настройки программы : cabac=1 / ref=14 / deblock=1:0:0 / analyse=0x3:0x133 / me=umh / subme=11 / psy=1 / psy_rd=1.15:0.05 / mixed_ref=1 / me_range=24 / chroma_me=1 / trellis=2 / 8x8dct=1 / cqm=0 / deadzone=21,11 / fast_pskip=0 / chroma_qp_offset=-3 / threads=12 / lookahead_threads=2 / sliced_threads=0 / nr=0 / decimate=0 / interlaced=0 / bluray_compat=0 / constrained_intra=0 / bframes=7 / b_pyramid=2 / b_adapt=2 / b_bias=0 / direct=3 / weightb=1 / open_gop=0 / weightp=2 / keyint=250 / keyint_min=25 / scenecut=40 / intra_refresh=0 / rc_lookahead=60 / rc=2pass / mbtree=1 / bitrate=1950 / ratetol=1.0 / qcomp=0.70 / qpmin=0 / qpmax=41 / qpstep=4 / cplxblur=20.0 / qblur=0.5 / ip_ratio=1.35 / aq=1:1.10
Default : Да
Forced : Нет
Основные цвета : BT.601 PAL
Характеристики трансфера : BT.470 System B, BT.470 System G
Коэффициенты матрицы : BT.601
Аудио
Идентификатор : 2
Формат : AC-3
Формат/Информация : Audio Coding 3
Расширение режима : CM (complete main)
Параметр Endianness формата : Big
Идентификатор кодека : A_AC3
Продолжительность : 1 ч. 35 м.
Вид битрейта : Постоянный
Битрейт : 224 Кбит/сек
Каналы : 1 канал
Расположение каналов : Front: C
Частота : 48,0 КГц
Битовая глубина : 16 бит
Метод сжатия : С потерями
Размер потока : 153 Мбайт (10%)
Default : Да
Forced : Нет
Скачать

Скачать торрент!

Как скачивать? · Что такое торрент? · Рейтинг и ограничения

Сайт не распространяет и не хранит электронные версии произведений, а лишь предоставляет доступ к создаваемому пользователями каталогу ссылок на торрент-файлы, которые содержат только списки хеш-сумм

[Профиль] [ЛС]
Показать сообщения:    
Ответить на тему

Текущее время: Сегодня 13:34

Часовой пояс: GMT + 4



Вы не можете начинать темы
Вы не можете отвечать на сообщения
Вы не можете редактировать свои сообщения
Вы не можете удалять свои сообщения
Вы не можете голосовать в опросах
Вы не можете прикреплять файлы к сообщениям
Вы не можете скачивать файлы