Прятки / Hide and Seek / Soombakkokjil (Ким Ый Сун / Kim Eui-Sung) [2013, Южная Корея, Триллер, DVDRip] DVO

Ответить на тему
 
Автор Сообщение

user ®

Стаж: 11 лет

Сообщений: 15151

Пост Пост: #1 от 15-Янв-2014 08:20

[Цитировать]

Прятки / Hide and Seek / Soombakkokjil
Год выпуска: 2013
Страна: Южная Корея
Жанр: Триллер
Продолжительность: 01:47:23
Озвучено: Любительский (двухголосый, закадровый) DeadSno & den904
Перевод: Skyworker
Работа со звуком: Гуннлауг
Внимание! В фильме присутствую четыре ненормативных слова.
Режиссёр: Ким Ый Сун/ Kim Eui-Sung
В ролях: Сон Хён Чжу / Son Hyun Joo, Мун Чжон Хи / Moon Chung-hee, Чон Ми Сон/ Jeon Mi Son...
Описание: Сун-Су — успешный бизнесмен. Он живет в шикарной квартире со своей семьей, но у него есть секрет, касающийся его старшего брата, а также он страдает от боязни микробов. Однажды Сун-Су узнает, что его старший брат пропал…

Автор Рипа: Васька Куролесов
Исходник: Hide.And.Seek.2013.DVDRip.x264-ZrL.mkv
Качество: DVDRip
Формат: AVI
Видео кодек: Xvid
Аудио кодек: MP3
Видео: Xvid, 720x304 (2.37:1), 16:9, 30.000fps, 1734 kb/s, 0.265 bits/pixel
Аудио: MP3, 48 kHz, 2 channels, 192 kbps

Скриншоты

MI

Complete name                            : Hide.And.Seek.2013.DVDRip.avi
Format                                   : AVI
Format/Info                              : Audio Video Interleave
File size                                : 1.45 GiB
Duration                                 : 1h 47mn
Overall bit rate                         : 1 937 Kbps
Video
ID                                       : 0
Format                                   : MPEG-4 Visual
Format profile                           : Advanced Simple@L5
Format settings, BVOP                    : 2
Format settings, QPel                    : No
Format settings, GMC                     : No warppoints
Format settings, Matrix                  : Default (H.263)
Codec ID                                 : XVID
Codec ID/Hint                            : XviD
Duration                                 : 1h 47mn
Bit rate                                 : 1 734 Kbps
Width                                    : 720 pixels
Height                                   : 304 pixels
Display aspect ratio                     : 2.35:1
Frame rate                               : 30.000 fps
Color space                              : YUV
Chroma subsampling                       : 4:2:0
Bit depth                                : 8 bits
Scan type                                : Progressive
Compression mode                         : Lossy
Bits/(Pixel*Frame)                       : 0.264
Stream size                              : 1.30 GiB (89%)
Writing library                          : XviD 64
Audio
ID                                       : 1
Format                                   : MPEG Audio
Format version                           : Version 1
Format profile                           : Layer 3
Codec ID                                 : 55
Codec ID/Hint                            : MP3
Duration                                 : 1h 47mn
Bit rate mode                            : Constant
Bit rate                                 : 192 Kbps
Channel(s)                               : 2 channels
Sampling rate                            : 48.0 KHz
Compression mode                         : Lossy
Stream size                              : 147 MiB (10%)
Alignment                                : Split accross interleaves
Interleave, duration                     : 35 ms (1.04 video frame)
Writing library                          : LAMELAME_MAJOR_VERSI
Скачать

Скачать торрент! Прятки / Hide and Seek / Soombakkokjil (Ким Ый Сун / Kim Eui-Sung) [2013, Южная Корея, Триллер, DVDRip] DVO

Как скачивать? · Что такое торрент? · Рейтинг и ограничения

Сайт не распространяет и не хранит электронные версии произведений, а лишь предоставляет доступ к создаваемому пользователями каталогу ссылок на торрент-файлы, которые содержат только списки хеш-сумм

[Профиль] [ЛС]
Показать сообщения:    
Ответить на тему

Текущее время: Сегодня 12:24

Часовой пояс: GMT + 4



Вы не можете начинать темы
Вы не можете отвечать на сообщения
Вы не можете редактировать свои сообщения
Вы не можете удалять свои сообщения
Вы не можете голосовать в опросах
Вы не можете прикреплять файлы к сообщениям
Вы не можете скачивать файлы