Да здравствует Франция / Vive la France (Микаэль Юн / Michael Youn) [2013, Франция, комедия, BDRip 1080p] Dub + Sub Eng + Original Fre

Ответить на тему
 
Автор Сообщение

user ®

Стаж: 7 лет 7 месяцев

Сообщений: 20008

Пост Пост: #1 от 14-Янв-2014 23:55

[Цитировать]

Да здравствует Франция / Vive la France- Страна: Франция
Жанр: комедия
Год выпуска: 2013
Продолжительность: 01:36:56
Перевод: Профессиональный (дублированный)
Cубтитры: английские
Оригинальная аудиодорожка: французский
Режиссер: Микаэль Юн / Michael Youn
В ролях: Хосе Гарсия, Микаэль Юн, Изабель Фунаро, Эри Абиттан, Жером Коммандёр, Венсан Москато, Жан Франсуа Кэйри, Франк Гастамбид, Мусса Мааскри, Хамид Наджах, Фатсах Буяхмед, Эмили Каен
Описание: Два пастуха из несуществующей арабской страны Табулистан отправляются в Париж, чтобы взорвать Эйфелеву башню.
Сэмпл: http://multi-up.com/940111
Тип релиза: BDRip 1080p
Контейнер: MKV
Видео: AVC, 1920x800 (2.40:1), 9500 Kbps, 24 fps, 0,258 bpp
Аудио: Русский, AC3, 448 Kbps, CBR, 6 ch, 16 bit
Аудио 2: Французский, DTS, 1510 Kbps, CBR, 6 ch, 24 bit
Формат субтитров: softsub (SRT)

MediaInfo

General
Unique ID : 235442360398797290828150268503836429616 (0xB1208C98D337D9258507C67CFDC98D30)
Complete name : C:\Users\Mr. Di Fazio\Desktop\Фильмы\Vive la France 2013 1080p.mkv
Format : Matroska
Format version : Version 4 / Version 2
File size : 7.76 GiB
Duration : 1h 36mn
Overall bit rate : 11.5 Mbps
Movie name : CMEGRoup
Encoded date : UTC 2014-01-13 04:24:29
Writing application : mkvmerge v6.7.0 ('Back to the Ground') 32bit built on Jan 8 2014 15:03:17
Writing library : libebml v1.3.0 + libmatroska v1.4.1
Video
ID : 1
Format : AVC
Format/Info : Advanced Video Codec
Format profile : High@L4.1
Format settings, CABAC : Yes
Format settings, ReFrames : 4 frames
Codec ID : V_MPEG4/ISO/AVC
Duration : 1h 36mn
Bit rate : 9 500 Kbps
Width : 1 920 pixels
Height : 800 pixels
Display aspect ratio : 2.40:1
Frame rate : 24.000 fps
Color space : YUV
Chroma subsampling : 4:2:0
Bit depth : 8 bits
Scan type : Progressive
Bits/(Pixel*Frame) : 0.258
Stream size : 6.28 GiB (81%)
Writing library : x264 core 138 r2358 9e941d1
Encoding settings : cabac=1 / ref=4 / deblock=1:-3:-3 / analyse=0x3:0x113 / me=umh / subme=11 / psy=1 / psy_rd=1.00:0.00 / mixed_ref=1 / me_range=32 / chroma_me=1 / trellis=2 / 8x8dct=1 / cqm=0 / deadzone=21,11 / fast_pskip=1 / chroma_qp_offset=-2 / threads=12 / lookahead_threads=1 / sliced_threads=0 / nr=0 / decimate=1 / interlaced=0 / bluray_compat=0 / constrained_intra=0 / bframes=5 / b_pyramid=2 / b_adapt=1 / b_bias=0 / direct=2 / weightb=1 / open_gop=0 / weightp=2 / keyint=240 / keyint_min=24 / scenecut=40 / intra_refresh=0 / rc_lookahead=40 / rc=2pass / mbtree=1 / bitrate=9500 / ratetol=1.0 / qcomp=0.60 / qpmin=10 / qpmax=51 / qpstep=4 / cplxblur=20.0 / qblur=0.5 / vbv_maxrate=62500 / vbv_bufsize=78125 / nal_hrd=none / ip_ratio=1.40 / aq=1:1.00 / zones=135150,139584,q=40
Language : English
Audio #1
ID : 2
Format : AC-3
Format/Info : Audio Coding 3
Mode extension : CM (complete main)
Codec ID : A_AC3
Duration : 1h 36mn
Bit rate mode : Constant
Bit rate : 448 Kbps
Channel(s) : 6 channels
Channel positions : Front: L C R, Side: L R, LFE
Sampling rate : 48.0 KHz
Bit depth : 16 bits
Compression mode : Lossy
Stream size : 311 MiB (4%)
Language : Russian
Audio #2
ID : 3
Format : DTS
Format/Info : Digital Theater Systems
Codec ID : A_DTS
Duration : 1h 36mn
Bit rate mode : Constant
Bit rate : 1 510 Kbps
Channel(s) : 6 channels
Channel positions : Front: L C R, Side: L R, LFE
Sampling rate : 48.0 KHz
Bit depth : 24 bits
Compression mode : Lossy
Stream size : 1.02 GiB (13%)
Language : French
Text
ID : 4
Format : UTF-8
Codec ID : S_TEXT/UTF8
Codec ID/Info : UTF-8 Plain Text
Language : English
Menu
00:00:00.000 : en:00:00:00.000
00:04:39.541 : en:00:04:39.541
00:12:41.000 : en:00:12:41.000
00:22:55.791 : en:00:22:55.791
00:29:17.208 : en:00:29:17.208
00:36:38.000 : en:00:36:38.000
00:46:50.708 : en:00:46:50.708
00:55:16.041 : en:00:55:16.041
01:05:50.625 : en:01:05:50.625
01:15:43.666 : en:01:15:43.666
01:24:54.125 : en:01:24:54.125
01:32:39.416 : en:01:32:39.416

Скриншоты

Скачать

Скачать торрент!

Как скачивать? · Что такое торрент? · Рейтинг и ограничения

Сайт не распространяет и не хранит электронные версии произведений, а лишь предоставляет доступ к создаваемому пользователями каталогу ссылок на торрент-файлы, которые содержат только списки хеш-сумм

[Профиль] [ЛС]
Показать сообщения:    
Ответить на тему

Текущее время: Сегодня 08:06

Часовой пояс: GMT + 4



Вы не можете начинать темы
Вы не можете отвечать на сообщения
Вы не можете редактировать свои сообщения
Вы не можете удалять свои сообщения
Вы не можете голосовать в опросах
Вы не можете прикреплять файлы к сообщениям
Вы не можете скачивать файлы