Обитатели холмов / Уотершипские холмы / Корабельный Холм / Опаснейшее путешествие / Watership Down (Мартин Розен / Martin Rosen) [1978, мультфильм, приключения, семейный, HDRip] AVO Л.Володарский

Ответить на тему
 
Автор Сообщение

user ®

Стаж: 11 лет

Сообщений: 15145

Пост Пост: #1 от 14-Янв-2014 20:45

[Цитировать]

Обитатели холмов / Уотершипские холмы / Корабельный Холм / Опаснейшее путешествие / Watership Down

Страна: Великобритания
Жанр: мультфильм, приключения, семейный
Продолжительность: 01:31:53
Год выпуска: 1978
Перевод: Авторский (одноголосый закадровый) Л.Володарский
Русские субтитры: нет
Режиссёр: Мартин Розен / Martin Rosen
Роли озвучивали: Джон Хёрт, Ричард Брирс, Майкл Грэм Кокс, Джон Беннет, Ральф Ричардсон, Саймон Каделл, Теренс Ригби, Рой Киннер, Ричард О’Каллаган, Денхолм Эллиот
Описание: 1. Мультфильм, снятый в 1978 году по книге Ричарда Адамса «Корабельный холм», повествует о приключениях кроликов, которые в поисках нового дома попадают в различные передряги. Детям рекомендуется просмотр совместно с родителями.
В русском прокате вышел под названием «Уплывший корабль». © wikipedia
2. Стилизованный мультфильм в диснеевском стиле по бестселлеру Ричарда Эдамса о семье кроликов, ищущих безопасное место для жизни. По пути они встречают много опасностей. Замечательное музыкальное сопровождение Анджелы Морлей и Малькома Уильямсона. (Иванов М.)
Доп. информация: Звуковая дорожка с VHSRip от alenavova
Синхрон Sp1end1d
Качество: HDRip
Формат: AVI
Видео: 720x400 (1.80:1), 23.976 fps, XviD build 63 ~2076 kbps avg, 0.30 bit/pixel
Аудио: 48 kHz, AC3 Dolby Digital, 2/0 (L,R) ch, ~192 kbps
Субтитры: отсутствуют

Подробные технические данные

Опаснейшее путешествие - Watership Down [by alenavova].aviFormat : AVIFormat/Info : Audio Video InterleaveFile size : 1.46 GiBDuration : 1h 31mnOverall bit rate : 2 278 KbpsMovie name : Опаснейшее путешествие - Watership Down [by alenavova]Director : by alenavovaWriting application : VirtualDubModRus 1.5.10.2 (build 2542/release)Copyright : Edcih2Comment : ***
VideoID : 0Format : MPEG-4 VisualFormat profile : Advanced Simple@L5Format settings, BVOP : 1Format settings, QPel : NoFormat settings, GMC : No warppointsFormat settings, Matrix : Default (MPEG)Codec ID : XVIDCodec ID/Hint : XviDDuration : 1h 31mnBit rate : 2 077 KbpsWidth : 720 pixelsHeight : 400 pixelsDisplay aspect ratio : 16:9Frame rate : 23.976 fpsColor space : YUVChroma subsampling : 4:2:0Bit depth : 8 bitsScan type : ProgressiveCompression mode : LossyBits/(Pixel*Frame) : 0.301Stream size : 1.33 GiB (91%)Writing library : XviD 63
AudioID : 1Format : AC-3Format/Info : Audio Coding 3Mode extension : CM (complete main)Format settings, Endianness : BigCodec ID : 2000Duration : 1h 31mnBit rate mode : ConstantBit rate : 192 KbpsChannel count : 2 channelsChannel positions : Front: L RSampling rate : 48.0 KHzBit depth : 16 bitsCompression mode : LossyStream size : 126 MiB (8%)Alignment : Split accross interleavesInterleave, duration : 42 ms (1.00 video frame)Interleave, preload duration : 500 ms

Скриншоты


Скачать

Скачать торрент! Обитатели холмов / Уотершипские холмы / Корабельный Холм / Опаснейшее путешествие / Watership Down (Мартин Розен / Martin Rosen) [1978, мультфильм, приключения, семейный, HDRip] AVO Л.Володарский

Как скачивать? · Что такое торрент? · Рейтинг и ограничения

Сайт не распространяет и не хранит электронные версии произведений, а лишь предоставляет доступ к создаваемому пользователями каталогу ссылок на торрент-файлы, которые содержат только списки хеш-сумм

[Профиль] [ЛС]
Показать сообщения:    
Ответить на тему

Текущее время: Сегодня 19:03

Часовой пояс: GMT + 4



Вы не можете начинать темы
Вы не можете отвечать на сообщения
Вы не можете редактировать свои сообщения
Вы не можете удалять свои сообщения
Вы не можете голосовать в опросах
Вы не можете прикреплять файлы к сообщениям
Вы не можете скачивать файлы