Новые парни турбо / New Kids Turbo (Стеффен Харс / Steffen Haars, Флип Ван Дер Куил / Flip Van der Kuil) [2010, Нидерланды, боевик, комедия, BDRip 1080p] VO (Vova-mnemic) + Original (Dut) + Subs (Eng, Dut)

Ответить на тему
 
Автор Сообщение

user ®

Стаж: 7 лет 7 месяцев

Сообщений: 20008

Пост Пост: #1 от 14-Янв-2014 02:50

[Цитировать]

Новые парни турбо / New Kids Turbo Страна: Нидерланды
Жанр: боевик, комедия
Год выпуска: 2010
Продолжительность: 01:24:47
Перевод: Одноголосый закадровый Vova-mnemic
Cубтитры: английские, нидерландские
Оригинальная аудиодорожка: нидерландский
Режиссер: Стеффен Харс / Steffen Haars, Флип Ван Дер Куил / Flip Van der Kuil
В ролях: Хуб Смит, Тим Харс, Весли ван Гален, Стеффен Харс, Флип Ван Дер Куил, Николь ван Нироп, Руд Маттейссен, Ларс Букхорст, Барт де Рийк, Дан ван Дейсселдонк
Описание:
Пятерых друзей увольняют из компании ввиду экономического кризиса. И они решают что с этого момента, мир не получит от них больше ни копейки. Они придут к вам, чтобы забрать все.
- ||-Тип релиза: BDRip 1080p (рип от DON)

Контейнер: MKV
Видео: AVC (x264), 1920x804 (2,40:1) at 24,000 fps, 12300 Кbps, 0.332 bpp
Аудио 1: DTS; 1536 Kbps; CBR; 6 ch; 48 khz | VO - Vova-mnemic |
Аудио 2: DTS; 1536 Kbps; CBR; 6 ch; 48 khz | Нидерландский |
Формат субтитров: softsub (SRT)

Скриншоты || x264 Info || MediaInfo || Notes

MediaInfo

Общее
Уникальный идентификатор                 : 207111372478317216837586437790488643216 (0x9BD0330C65A0B681984C6E0AE6E4C690)
Полное имя                               : Новые парни турбо.2010.L1.1080p.BluRay.x264-DON.mkv
Формат                                   : Matroska
Версия формата                           : Version 4 / Version 2
Размер файла                             : 9,07 Гбайт
Продолжительность                        : 1 ч. 24 м.
Общий поток                              : 15,3 Мбит/сек
Название фильма                          : New Kids Turbo [1080p] [2010] VO
Дата кодирования                         : UTC 2014-01-13 07:55:59
Программа кодирования                    : mkvmerge v6.7.0 ('Back to the Ground') 32bit built on Jan  8 2014 15:03:17
Библиотека кодирования                   : libebml v1.3.0 + libmatroska v1.4.1
Видео
Идентификатор                            : 1
Формат                                   : AVC
Формат/Информация                        : Advanced Video Codec
Профиль формата                          : High@L4.1
Параметр CABAC формата                   : Да
Параметр ReFrames формата                : 5 кадров
Идентификатор кодека                     : V_MPEG4/ISO/AVC
Продолжительность                        : 1 ч. 24 м.
Битрейт                                  : 12,3 Мбит/сек
Ширина                                   : 1920 пикселей
Высота                                   : 804 пикселя
Соотношение сторон                       : 2,40:1
Режим частоты кадров                     : Постоянный
Частота кадров                           : 24,000 кадра/сек
Цветовое пространство                    : YUV
Субдискретизация насыщенности            : 4:2:0
Битовая глубина                          : 8 бит
Тип развёртки                            : Прогрессивная
Бит/(Пиксели*Кадры)                      : 0.332
Размер потока                            : 7,10 Гбайт (78%)
Заголовок                                : profile.php?mode=viewprofile&u=22488948
Библиотека кодирования                   : x264 core 140 r2377kMod 1ca7bb9
Настройки программы                      : cabac=1 / ref=5 / deblock=1:-3:-3 / analyse=0x3:0x133 / me=tesa / subme=10 / psy=1 / fade_compensate=0.00 / psy_rd=0.90:0.00 / mixed_ref=1 / me_range=32 / chroma_me=1 / trellis=2 / 8x8dct=1 / cqm=0 / deadzone=21,11 / fast_pskip=0 / chroma_qp_offset=-2 / threads=6 / lookahead_threads=1 / sliced_threads=0 / nr=0 / decimate=0 / interlaced=0 / bluray_compat=0 / constrained_intra=0 / fgo=0 / bframes=10 / b_pyramid=2 / b_adapt=2 / b_bias=0 / direct=3 / weightb=1 / open_gop=0 / weightp=2 / keyint=250 / keyint_min=24 / scenecut=40 / intra_refresh=0 / rc_lookahead=60 / rc=2pass / mbtree=0 / bitrate=12290 / ratetol=1.0 / qcomp=0.70 / qpmin=0 / qpmax=69 / qpstep=4 / cplxblur=20.0 / qblur=0.5 / vbv_maxrate=50000 / vbv_bufsize=62500 / nal_hrd=none / filler=0 / ip_ratio=1.20 / pb_ratio=1.10 / aq=1:0.60
Язык                                     : Dutch
Default                                  : Да
Forced                                   : Нет
Аудио #1
Идентификатор                            : 2
Формат                                   : DTS
Формат/Информация                        : Digital Theater Systems
Режим                                    : 16
Параметр Endianness формата              : Big
Идентификатор кодека                     : A_DTS
Продолжительность                        : 1 ч. 24 м.
Вид битрейта                             : Постоянный
Битрейт                                  : 1510 Кбит/сек
Каналы                                   : 6 каналов
Расположение каналов                     : Front: L C R, Side: L R, LFE
Частота                                  : 48,0 КГц
Битовая глубина                          : 24 бит
Метод сжатия                             : С потерями
Размер потока                            : 915 Мбайт (10%)
Заголовок                                : VO [Vova-mnemic]
Язык                                     : Russian
Default                                  : Да
Forced                                   : Нет
Аудио #2
Идентификатор                            : 3
Формат                                   : DTS
Формат/Информация                        : Digital Theater Systems
Режим                                    : 16
Параметр Endianness формата              : Big
Идентификатор кодека                     : A_DTS
Продолжительность                        : 1 ч. 24 м.
Вид битрейта                             : Постоянный
Битрейт                                  : 1509 Кбит/сек
Каналы                                   : 6 каналов
Расположение каналов                     : Front: L C R, Side: L R, LFE
Частота                                  : 48,0 КГц
Битовая глубина                          : 24 бит
Метод сжатия                             : С потерями
Размер потока                            : 915 Мбайт (10%)
Язык                                     : Dutch
Default                                  : Нет
Forced                                   : Нет
Текст #1
Идентификатор                            : 4
Формат                                   : UTF-8
Идентификатор кодека                     : S_TEXT/UTF8
Идентификатор кодека/Информация          : UTF-8 Plain Text
Заголовок                                : SDH
Язык                                     : Dutch
Default                                  : Нет
Forced                                   : Нет
Текст #2
Идентификатор                            : 5
Формат                                   : UTF-8
Идентификатор кодека                     : S_TEXT/UTF8
Идентификатор кодека/Информация          : UTF-8 Plain Text
Язык                                     : English
Default                                  : Нет
Forced                                   : Нет
Меню
00:00:00.000                             : en:Chapter 1
00:10:32.583                             : en:Chapter 2
00:20:46.625                             : en:Chapter 3
00:30:46.167                             : en:Chapter 4
00:41:10.250                             : en:Chapter 5
00:53:22.375                             : en:Chapter 6
01:00:28.292                             : en:Chapter 7
01:09:21.708                             : en:Chapter 8
01:20:25.958                             : en:Chapter 9
x264 [info]: frame I:1120 Avg QP:17.19 size:175247
x264 [info]: frame P:24532 Avg QP:18.26 size: 87973
x264 [info]: frame B:96427 Avg QP:18.61 size: 56605
x264 [info]: consecutive B-frames: 2.0% 2.9% 5.8% 11.7% 10.4% 53.9% 5.3% 1.5% 2.9% 1.1% 2.5%
Скачать

Скачать торрент!

Как скачивать? · Что такое торрент? · Рейтинг и ограничения

Сайт не распространяет и не хранит электронные версии произведений, а лишь предоставляет доступ к создаваемому пользователями каталогу ссылок на торрент-файлы, которые содержат только списки хеш-сумм

[Профиль] [ЛС]
Показать сообщения:    
Ответить на тему

Текущее время: Сегодня 20:11

Часовой пояс: GMT + 4



Вы не можете начинать темы
Вы не можете отвечать на сообщения
Вы не можете редактировать свои сообщения
Вы не можете удалять свои сообщения
Вы не можете голосовать в опросах
Вы не можете прикреплять файлы к сообщениям
Вы не можете скачивать файлы