Дикая, дикая роза / Ye mei gui zhi lian / The Wild, Wild Rose (Вонг Тин Лим / Tian-lin Wang) [1960, Гонконг, мюзикл, нуар, DVDRip] VO (den904)

Ответить на тему
 
Автор Сообщение

user ®

Стаж: 13 лет

Сообщений: 15071

Пост Пост: #1 от 12-Янв-2014 23:55

[Цитировать]

Дикая, дикая роза / Ye mei gui zhi lian / The Wild, Wild Rose
Страна: Гонконг
Жанр: мюзикл, нуар
Год выпуска: 1960
Продолжительность: 02:08:13
Перевод: dsa69
Озвучка:Одноголосый закадровый den904
Оригинальная аудиодорожка: китайский
Режиссер: Вонг Тин Лим / Tian-lin Wang
В ролях:
Грэйс Чанг
Янг Чжан
Пай Чиен Чин
Луи Тат
Enjia Liu
Ли Ма
Ксаононг Ма
Ша-фэй Оуянг
Юн Шен
Фенг Су
Описание: Грейс Чанг считается самой чувственной исполнительницей роли Кармен в Гонконге.
Яркие характеры оперы Бизе получают новый постмодернистский образ и перемещаются в округ Ванчай в Гонконге.
Релиз:

Качество видео: DVDRip
Формат видео: AVI
Видео: XviD, 1 323 Kbps, 608x464, 23.976 fps
Аудио: AC-3, 192 Kbps, 2 channels, 48.0 KHz (русский)
Аудио 2: MPEG Audio, Layer 3, MP3, 128 Kbps, 2 channels, 48.0 KHz (китайский)

Скриншоты

инфо

General
Complete name : D:\torrent\1 раздачи\Дикая, дикая роза\Дикая, дикая роза (1960).avi
Format : AVI
Format/Info : Audio Video Interleave
File size : 1.46 GiB
Duration : 2h 8mn
Overall bit rate mode : Variable
Overall bit rate : 1 635 Kbps
Writing application : VirtualDubMod 1.5.4.1 (build 2178/release)
Writing library : VirtualDubMod build 2178/release
Video
ID : 0
Format : MPEG-4 Visual
Format profile : Advanced Simple@L5
Format settings, BVOP : 1
Format settings, QPel : No
Format settings, GMC : No warppoints
Format settings, Matrix : Custom
Codec ID : XVID
Codec ID/Hint : XviD
Duration : 2h 8mn
Bit rate : 1 323 Kbps
Width : 608 pixels
Height : 464 pixels
Display aspect ratio : 4:3
Frame rate : 23.976 fps
Color space : YUV
Chroma subsampling : 4:2:0
Bit depth : 8 bits
Scan type : Progressive
Compression mode : Lossy
Bits/(Pixel*Frame) : 0.156
Stream size : 1.18 GiB (81%)
Writing library : XviD 1.2.1 (UTC 2008-12-04)
Audio #1
ID : 1
Format : AC-3
Format/Info : Audio Coding 3
Mode extension : CM (complete main)
Format settings, Endianness : Big
Codec ID : 2000
Duration : 2h 8mn
Bit rate mode : Constant
Bit rate : 192 Kbps
Channel count : 2 channels
Channel positions : Front: L R
Sampling rate : 48.0 KHz
Bit depth : 16 bits
Compression mode : Lossy
Stream size : 176 MiB (12%)
Alignment : Split accross interleaves
Interleave, duration : 96 ms (2.88 video frames)
Interleave, preload duration : 96 ms
Language : Russian
Audio #2
ID : 2
Format : MPEG Audio
Format version : Version 1
Format profile : Layer 3
Mode : Joint stereo
Mode extension : MS Stereo
Codec ID : 55
Codec ID/Hint : MP3
Duration : 2h 8mn
Bit rate mode : Constant
Bit rate : 104 Kbps
Nominal bit rate : 128 Kbps
Channel count : 2 channels
Sampling rate : 48.0 KHz
Compression mode : Lossy
Stream size : 95.3 MiB (6%)
Alignment : Aligned on interleaves
Interleave, duration : 24 ms (0.72 video frame)
Interleave, preload duration : 580 ms
Writing library : LAME3.98r
Encoding settings : -m j -V 4 -q 2 -lowpass 17 --abr 128
Language : Chinese
Скачать

Скачать торрент! Дикая, дикая роза / Ye mei gui zhi lian / The Wild, Wild Rose (Вонг Тин Лим / Tian-lin Wang) [1960, Гонконг, мюзикл, нуар, DVDRip] VO (den904)

Как скачивать? · Что такое торрент? · Рейтинг и ограничения

Сайт не распространяет и не хранит электронные версии произведений, а лишь предоставляет доступ к создаваемому пользователями каталогу ссылок на торрент-файлы, которые содержат только списки хеш-сумм

[Профиль] [ЛС]
Показать сообщения:    
Ответить на тему

Текущее время: Сегодня 20:55

Часовой пояс: GMT + 4



Вы не можете начинать темы
Вы не можете отвечать на сообщения
Вы не можете редактировать свои сообщения
Вы не можете удалять свои сообщения
Вы не можете голосовать в опросах
Вы не можете прикреплять файлы к сообщениям
Вы не можете скачивать файлы