Сила личности / The Power of One (Джон Г. Эвилдсен / John Guilbert Avildsen) [1992, США, Франция, Австралия, Драма, WEB-DL 720p] AVO (Л. Володарский) + AVO (В. Горчаков) + Sub Eng + Original Eng

Ответить на тему
 
Автор Сообщение

user ®

Стаж: 7 лет 7 месяцев

Сообщений: 20008

Пост Пост: #1 от 12-Янв-2014 17:35

[Цитировать]

Сила личности / The Power of One
Страна: США, Франция, Австралия
Студия: Warner Bros. Pictures
Жанр: Драма
Год выпуска: 1992
Продолжительность: 2:07:05
Перевод 1: Авторский (одноголосый закадровый) Леонид Володарский
Перевод 2: Авторский (одноголосый закадровый) Василий Горчаков
Cубтитры: английские
Оригинальная аудиодорожка: английский
Режиссер: Джон Г. Эвилдсен / John Guilbert Avildsen
В ролях: Стивен Дорфф, Морган Фримен, Армин Мюллер-Шталь,Фэй Мастерсон, Джон Гилгуд, Джон Осборн, Дэниел Крэйг, Саймон Фентон, Трэйси Брукс Своул, Гай Уитчер, Алоис Мойо, Мариус Уайерс, Йен Робертс-Описание: Маленький англичанин Питер Кеннет-Кейт, которого все зовут Пикей, рано осиротевший, вынужден выживать в суровом мире расовой сегрегации в Южной Африке. Сначала ему приходится ходить в школу, где он единственный англичанин среди африканеров, а потом поселиться в тюрьме. Но однажды один из заключенных открывает в парне редкий боксерский талант …-Тип релиза: WEB-DL 720p
Контейнер: MKV
Видео: MPEG-4 AVC Video, 1280x720p / 1,78:1 (16:9) / ~4000 kbps / 23,976 fps
Аудио 1: Russian: AC3 2.0 ch, 48 kHz, 192 kbps (Володарский)
Аудио 2: Russian: AC3 2.0 ch, 48 kHz, 192 kbps (Горчаков)
Аудио 3: English: AAC (LC), 2.0 ch, 48 kHz, ~160 kbps
Формат субтитров: softsub (SRT)
-

MediaInfo

ОбщееУникальный идентификатор : 202609071693991736639815847085113128058 (0x986D167B3D7C62A0A0179E0CD8D0B47A)Полное имя : E:\FILMS\The Power of One (1992) 720p WEB-DL\The.Power.of.One.1992.720p.WEB-DL.mkvФормат : MatroskaВерсия формата : Version 1Размер файла : 3,95 ГбайтПродолжительность : 2 ч. 7 м.Общий поток : 4450 Кбит/секНазвание фильма : The Power of One (1992)Дата кодирования : UTC 2014-01-11 20:00:40Программа кодирования : mkvmerge v2.4.1 ('Use Me') built on Dec 5 2008 18:30:05Библиотека кодирования : libebml v0.7.7 + libmatroska v0.8.1
ВидеоИдентификатор : 1Формат : AVCФормат/Информация : Advanced Video CodecПрофиль формата : High@L3.1Параметр CABAC формата : НетПараметр ReFrames формата : 2 кадраИдентификатор кодека : V_MPEG4/ISO/AVCПродолжительность : 2 ч. 7 м.Ширина : 1280 пикселейВысота : 720 пикселейСоотношение сторон : 16:9Режим частоты кадров : ПостоянныйЧастота кадров : 23,976 кадра/секЦветовое пространство : YUVСубдискретизация насыщенности : 4:2:0Битовая глубина : 8 битТип развёртки : ПрогрессивнаяЗаголовок : The.Power.of.One.1992.720p.WEB-DL.AAC2.0.H264-SUPERBADЯзык : EnglishDefault : ДаForced : НетОсновные цвета : BT.709Характеристики трансфера : BT.709Коэффициенты матрицы : BT.709
Аудио #1Идентификатор : 2Формат : AC-3Формат/Информация : Audio Coding 3Расширение режима : CM (complete main)Параметр Endianness формата : BigИдентификатор кодека : A_AC3Продолжительность : 2 ч. 7 м.Вид битрейта : ПостоянныйБитрейт : 192 Кбит/секКаналы : 2 каналаРасположение каналов : Front: L RЧастота : 48,0 КГцБитовая глубина : 16 битМетод сжатия : С потерямиРазмер потока : 175 Мбайт (4%)Заголовок : ВолодарскийЯзык : RussianDefault : ДаForced : Нет
Аудио #2Идентификатор : 3Формат : AC-3Формат/Информация : Audio Coding 3Расширение режима : CM (complete main)Параметр Endianness формата : BigИдентификатор кодека : A_AC3Продолжительность : 2 ч. 7 м.Вид битрейта : ПостоянныйБитрейт : 192 Кбит/секКаналы : 2 каналаРасположение каналов : Front: L RЧастота : 48,0 КГцБитовая глубина : 16 битМетод сжатия : С потерямиРазмер потока : 175 Мбайт (4%)Заголовок : ГорчаковЯзык : RussianDefault : НетForced : Нет
Аудио #3Идентификатор : 4Формат : AACФормат/Информация : Advanced Audio CodecПрофиль формата : LCИдентификатор кодека : A_AACПродолжительность : 2 ч. 7 м.Каналы : 2 каналаРасположение каналов : Front: L RЧастота : 48,0 КГцМетод сжатия : С потерямиЗаголовок : EnglishЯзык : EnglishDefault : НетForced : Нет
Текст #1Идентификатор : 5Формат : UTF-8Идентификатор кодека : S_TEXT/UTF8Идентификатор кодека/Информация : UTF-8 Plain TextЗаголовок : EnglishЯзык : EnglishDefault : НетForced : Нет
Текст #2Идентификатор : 6Формат : UTF-8Идентификатор кодека : S_TEXT/UTF8Идентификатор кодека/Информация : UTF-8 Plain TextЗаголовок : English for the Hearing ImpairedЯзык : EnglishDefault : НетForced : Нет
Меню00:00:00.000 : en:Sad news00:10:29.000 : en:PK's vision: Dabula Manzi restores his name00:14:29.000 : en:Brute force00:19:44.000 : en:Doc00:25:43.000 : en:Barberton Prison00:28:11.000 : en:Geel Piet00:36:55.000 : en:A rainmaker00:39:24.000 : en:Sgt. Bormann's boot00:43:14.000 : en:A concert takes shape00:49:29.000 : en:Opening remarksa€¦translated00:52:10.000 : en:The concert begins00:53:47.000 : en:A free man00:57:45.000 : en:The key to survival01:00:06.000 : en:Eye contact01:03:51.000 : en:A nighttime visit01:06:12.000 : en:Gruenewald takes PK on01:10:11.000 : en:Meeting Dr. Marais01:12:57.000 : en:A boxing challenge01:24:59.000 : en:An invitation from Maria01:27:13.000 : en:A morning run full of questions01:31:30.000 : en:The answer in nature01:32:50.000 : en:A drop of water01:34:56.000 : en:"I won't hate like you."01:42:09.000 : en:Full of animals01:44:52.000 : en:Daring the opponent01:51:35.000 : en:"It works."01:53:32.000 : en:Township under siege01:56:23.000 : en:Showdown with Botha01:59:10.000 : en:The voices of Africa02:00:28.000 : en:Coda and End Credits

Скриншоты


Скачать

Скачать торрент!

Как скачивать? · Что такое торрент? · Рейтинг и ограничения

Сайт не распространяет и не хранит электронные версии произведений, а лишь предоставляет доступ к создаваемому пользователями каталогу ссылок на торрент-файлы, которые содержат только списки хеш-сумм

[Профиль] [ЛС]
Показать сообщения:    
Ответить на тему

Текущее время: Сегодня 04:18

Часовой пояс: GMT + 4



Вы не можете начинать темы
Вы не можете отвечать на сообщения
Вы не можете редактировать свои сообщения
Вы не можете удалять свои сообщения
Вы не можете голосовать в опросах
Вы не можете прикреплять файлы к сообщениям
Вы не можете скачивать файлы