Петровка, 38 (Борис Григорьев) [1980, Детектив, криминал, DVDRip-AVC]

Ответить на тему
 
Автор Сообщение

user ®

Стаж: 7 лет 7 месяцев

Сообщений: 20008

Пост Пост: #1 от 12-Янв-2014 06:40

[Цитировать]

Петровка, 38
Жанр: Детектив, криминал
Год выпуска: 1980
Продолжительность: 01:23:12
Режиссёр: Борис Григорьев
В ролях: Георгий Юматов, Василий Лановой, Евгений Герасимов, Людмила Нильская, Михаил Жигалов, Александр Никифоров, Николай Еременко-ст., Григорий Лямпе, Саша Егоров, Юрий Волков, Николай Крюков, Герман Качин, Вацлав Дворжецкий
Описание: Знаменитый фильм о нелегкой работе сотрудников Московского уголовного розыска, благодаря которому люди знали, что «Петровка, 38» - это не только детектив, но и адрес МУРа.
Полковник Садчиков, майор Костенко и старший лейтенант Росляков расследуют серию дерзких ограблений.
Выясняется, что в последнем преступлении участвовал подросток, который вскоре сам пришел на Петрову, 38 с повинной.
С его помощью были задержаны бандиты, готовящие очередной налет. Но главарь банды все еще оставался на свободе…
Доп. информация:
[url=http://***/forum/viewtopic.php?t=437431]Исходник[/url]
Сравнение с исходником
Качество видео: DVDRip-AVC
Формат видео: MKV
Видео: 702x366@749x366, (2,04:1), 25 fps, ~2108 kbps
Аудио: 48 kHz, AC3 Dolby Digital, 3/2 (L,C,R,l,r) + LFE ch, ~384.00 kbps
FillMargins(0, 0, 0, 1)

Медиаинфо


-

Лог

x264 [info]: frame I:671 Avg QP:17.41 size: 39572
x264 [info]: frame P:26254 Avg QP:20.20 size: 17724
x264 [info]: frame B:97883 Avg QP:21.61 size: 8414
x264 [info]: consecutive B-frames: 1.6% 2.1% 8.8% 15.8% 11.3% 52.9% 4.4% 1.6% 1.0% 0.2% 0.0% 0.2% 0.1%
x264 [info]: mb I I16..4: 2.7% 80.4% 16.8%
x264 [info]: mb P I16..4: 0.3% 13.3% 1.8% P16..4: 32.6% 39.6% 12.4% 0.0% 0.0% skip: 0.1%
x264 [info]: mb B I16..4: 0.0% 1.9% 0.1% B16..8: 45.9% 24.8% 3.8% direct:12.2% skip:11.2% L0:45.8% L1:43.3% BI:10.9%
x264 [info]: 8x8 transform intra:87.7% inter:60.2%
x264 [info]: direct mvs spatial:95.2% temporal:4.8%
x264 [info]: coded y,uvDC,uvAC intra: 98.4% 89.2% 64.7% inter: 56.2% 46.2% 11.3%
x264 [info]: i16 v,h,dc,p: 18% 39% 5% 38%
x264 [info]: i8 v,h,dc,ddl,ddr,vr,hd,vl,hu: 10% 8% 6% 10% 13% 15% 12% 13% 12%
x264 [info]: i4 v,h,dc,ddl,ddr,vr,hd,vl,hu: 12% 9% 3% 9% 13% 17% 12% 14% 12%
x264 [info]: i8c dc,h,v,p: 41% 23% 20% 16%
x264 [info]: Weighted P-Frames: Y:20.6% UV:8.3%
x264 [info]: ref P L0: 32.6% 9.3% 16.5% 8.2% 6.7% 5.1% 4.6% 2.6% 2.5% 2.1% 2.1% 1.8% 1.7% 1.5% 1.5% 1.0%
x264 [info]: ref B L0: 65.1% 11.7% 5.8% 3.5% 2.7% 2.4% 1.9% 1.3% 1.1% 1.1% 0.9% 0.9% 0.8% 0.5% 0.2%
x264 [info]: ref B L1: 92.7% 7.3%
x264 [info]: kb/s:2107.95
-Общее
Уникальный идентификатор : 255156938687805888802568054491680162333 (0xBFF5705A06E699BEBDDA79BFECF1421D)
Полное имя : F:\DVD\Petrovka,38_1980-DVDRip-AVC.mkv
Формат : Matroska
Версия формата : Version 4 / Version 2
Размер файла : 1,45 Гбайт
Продолжительность : 1 ч. 23 м.
Общий поток : 2494 Кбит/сек
Дата кодирования : UTC 2014-01-11 23:24:28
Программа кодирования : mkvmerge v6.1.0 ('Old Devil') built on Mar 4 2013 09:10:42
Библиотека кодирования : libebml v1.3.0 + libmatroska v1.4.0
Видео
Идентификатор : 1
Формат : AVC
Формат/Информация : Advanced Video Codec
Профиль формата : High@L4.1
Параметр CABAC формата : Да
Параметр ReFrames формата : 16 кадров
Идентификатор кодека : V_MPEG4/ISO/AVC
Продолжительность : 1 ч. 23 м.
Битрейт : 2108 Кбит/сек
Ширина : 702 пикселя
Высота : 366 пикселей
Соотношение сторон : 2,046
Режим частоты кадров : Постоянный
Частота кадров : 25,000 кадров/сек
Цветовое пространство : YUV
Субдискретизация насыщенности : 4:2:0
Битовая глубина : 8 бит
Тип развёртки : Прогрессивная
Бит/(Пиксели*Кадры) : 0.328
Размер потока : 1,20 Гбайт (83%)
Библиотека кодирования : x264 core 133 r2334 a3ac64b
Настройки программы : cabac=1 / ref=16 / deblock=1:-1:-1 / analyse=0x3:0x113 / me=umh / subme=11 / psy=1 / psy_rd=1.05:0.15 / mixed_ref=1 / me_range=24 / chroma_me=1 / trellis=2 / 8x8dct=1 / cqm=0 / deadzone=21,11 / fast_pskip=0 / chroma_qp_offset=-3 / threads=12 / lookahead_threads=2 / sliced_threads=0 / nr=0 / decimate=0 / interlaced=0 / bluray_compat=0 / constrained_intra=0 / bframes=12 / b_pyramid=2 / b_adapt=2 / b_bias=0 / direct=3 / weightb=1 / open_gop=0 / weightp=2 / keyint=250 / keyint_min=25 / scenecut=40 / intra_refresh=0 / rc_lookahead=60 / rc=2pass / mbtree=1 / bitrate=2108 / ratetol=1.0 / qcomp=0.65 / qpmin=0 / qpmax=41 / qpstep=4 / cplxblur=20.0 / qblur=0.5 / ip_ratio=1.35 / aq=1:0.90
Default : Да
Forced : Нет
Основные цвета : BT.601 PAL
Характеристики трансфера : BT.470 System B, BT.470 System G
Коэффициенты матрицы : BT.601
Аудио
Идентификатор : 2
Формат : AC-3
Формат/Информация : Audio Coding 3
Расширение режима : CM (complete main)
Параметр Endianness формата : Big
Идентификатор кодека : A_AC3
Продолжительность : 1 ч. 23 м.
Вид битрейта : Постоянный
Битрейт : 384 Кбит/сек
Каналы : 6 каналов
Расположение каналов : Front: L C R, Side: L R, LFE
Частота : 48,0 КГц
Битовая глубина : 16 бит
Метод сжатия : С потерями
Размер потока : 229 Мбайт (15%)
Default : Да
Forced : Нет
Скачать

Скачать торрент!

Как скачивать? · Что такое торрент? · Рейтинг и ограничения

Сайт не распространяет и не хранит электронные версии произведений, а лишь предоставляет доступ к создаваемому пользователями каталогу ссылок на торрент-файлы, которые содержат только списки хеш-сумм

[Профиль] [ЛС]
Показать сообщения:    
Ответить на тему

Текущее время: Сегодня 21:57

Часовой пояс: GMT + 4



Вы не можете начинать темы
Вы не можете отвечать на сообщения
Вы не можете редактировать свои сообщения
Вы не можете удалять свои сообщения
Вы не можете голосовать в опросах
Вы не можете прикреплять файлы к сообщениям
Вы не можете скачивать файлы