Крриш 3 / Krrish 3 (Ракеш Рошан / Rakesh Roshan) [2013, Индия, Фантастика, боевик, WEB-DLRip] MVO (ICG) + Sub Rus + Original

Ответить на тему
 
Автор Сообщение

user ®

Стаж: 12 лет

Сообщений: 15092

Пост Пост: #1 от 08-Янв-2014 19:45

[Цитировать]

Крриш 3 / Krrish 3
-Страна: Индия
Жанр: Фантастика, боевик
Год выпуска: 2013
Продолжительность: 02:26:50--Язык: Хинди
Перевод: Любительский (многоголосый закадровый) - ICG
Cубтитры: Pусские (полные, песни) [перевод: tonyvika ]--Режиссер: Ракеш Рошан / Rakesh Roshan-В ролях: Приянка Чопра, Ритик Рошан, Амитабх Баччан, Насируддин Шах, Кангана Ранаут, Вивек Оберой, Раджпал Ядав, Мохниш Бехл, Сачин Кхедекар, Ариф Закария.--Описание: После победы над злодеем Доктором Сидхартом Арья, и возвращения его отца Рохита, воскресшего из мертвых, Крриш продолжает бороться против зла и спасать невинные жизни.
Теперь Кришна живет жизнью в счастливом браке с Прией, в то время как Рохит использует свои научные данные на благо общества. И Крриш — любимый супергерой каждого спасённого.
Им неизвестно, что темная сила растет в другой части мира. Каал, злобный гений, эгоистично злоупотребляющий свои силы, чтобы посеять страх, смерть и разрушение. И он пользуется поддержкой армии очень опасных существ, которых он создал сам.
Вскоре планы Каала приведены в действие, Рохит и Крриш оказываются перед лицом кризиса эпических масштабов, которые только они могут решить вместе. Когда же наконец их пути пересеклись с Каалом и его армией, ни один из них не был готов к тому, что ждёт их впереди. Каал, не только приводит мир на грань катастрофы, он также ставит на прочность силу и любовь к Кришне и его семьи. И Крриш должен каким-то образом найти силу внутри к лицу непобедимого врага. Величайшая битва между добром и злом.-- | | Трейлер | Сэмпл--Качество видео: WEB-DLRip
Формат видео: AVI-Видео: XviD, 720x304, 1364 Кбит/с, 24 fps,
Аудио #1: AC3, 2 ch, 448 Кбит/с [Rus ]
Аудио #2: 48 kHz, АС3, 2 ch, 224 kbps [Hindi ]
Формат субтитров: softsub (SRT)-Доп. информация:
  • о субтитрах: внешние: #полные, #песни-Релиз по заказу , при поддержке Anwap и пользователей ВК (спасибо!)
    Перевод tonyvika (спасибо!)--Сэмпл / Sample-- -
    -
    -

    Скриншот с названием:


    -

    Скриншоты:


    -

    MI

    Общее
    Полное имя : D:\[Релизы]\Krrish-3.2013.WEB-DLRip.Rus.Original.ICG.GF.AW\Krrish-3.2013.WEB-DLRip.Rus.Original.ICG.GF.AW.avi
    Формат : AVI
    Формат/Информация : Audio Video Interleave
    Профиль формата : OpenDML
    Размер файла : 2,19 Гбайт
    Продолжительность : 2 ч. 32 м.
    Общий поток : 2054 Кбит/сек
    Программа кодирования : VirtualDubModRus 1.5.10.2 (build 2542/release)
    Библиотека кодирования : VirtualDubMod build 2542/release
    Видео
    Идентификатор : 0
    Формат : MPEG-4 Visual
    Профиль формата : Advanced Simple@L5
    Параметр BVOP формата : 1
    Параметр QPel формата : Нет
    Параметр GMC формата : Без точки перехода
    Параметр матрицы формата : Default (MPEG)
    Идентификатор кодека : XVID
    Идентификатор кодека/Подсказка : XviD
    Продолжительность : 2 ч. 32 м.
    Битрейт : 1364 Кбит/сек
    Ширина : 720 пикселей
    Высота : 304 пикселя
    Соотношение сторон : 2,35:1
    Частота кадров : 24,000 кадра/сек
    Цветовое пространство : YUV
    Субдискретизация насыщенности : 4:2:0
    Битовая глубина : 8 бит
    Тип развёртки : Прогрессивная
    Метод сжатия : С потерями
    Бит/(Пиксели*Кадры) : 0.260
    Размер потока : 1,46 Гбайт (66%)
    Библиотека кодирования : XviD 64
    Аудио #1
    Идентификатор : 1
    Формат : AC-3
    Формат/Информация : Audio Coding 3
    Расширение режима : CM (complete main)
    Параметр Endianness формата : Big
    Идентификатор кодека : 2000
    Продолжительность : 2 ч. 32 м.
    Вид битрейта : Постоянный
    Битрейт : 448 Кбит/сек
    Каналы : 2 канала
    Расположение каналов : Front: L R
    Частота : 48,0 КГц
    Битовая глубина : 16 бит
    Метод сжатия : С потерями
    Размер потока : 489 Мбайт (22%)
    Выравнивание : Разделение по промежуткам
    Продолжительность промежутка : 42 мс. (1,00 видеокадр)
    Время предзагрузки промежутка : 500 мс.
    Аудио #2
    Идентификатор : 2
    Формат : AC-3
    Формат/Информация : Audio Coding 3
    Расширение режима : CM (complete main)
    Параметр Endianness формата : Big
    Идентификатор кодека : 2000
    Продолжительность : 2 ч. 32 м.
    Вид битрейта : Постоянный
    Битрейт : 224 Кбит/сек
    Каналы : 2 канала
    Расположение каналов : Front: L R
    Частота : 44,1 КГц
    Битовая глубина : 16 бит
    Метод сжатия : С потерями
    Размер потока : 244 Мбайт (11%)
    Выравнивание : Соединение по промежуткам
    Продолжительность промежутка : 42 мс. (1,00 видеокадр)
    Время предзагрузки промежутка : 522 мс.

    -
    -
Скачать

Скачать торрент! Крриш 3 / Krrish 3 (Ракеш Рошан / Rakesh Roshan) [2013, Индия, Фантастика, боевик, WEB-DLRip] MVO (ICG) + Sub Rus + Original

Как скачивать? · Что такое торрент? · Рейтинг и ограничения

Сайт не распространяет и не хранит электронные версии произведений, а лишь предоставляет доступ к создаваемому пользователями каталогу ссылок на торрент-файлы, которые содержат только списки хеш-сумм

[Профиль] [ЛС]
Показать сообщения:    
Ответить на тему

Текущее время: Сегодня 18:43

Часовой пояс: GMT + 4



Вы не можете начинать темы
Вы не можете отвечать на сообщения
Вы не можете редактировать свои сообщения
Вы не можете удалять свои сообщения
Вы не можете голосовать в опросах
Вы не можете прикреплять файлы к сообщениям
Вы не можете скачивать файлы