Крриш 3 / Krrish 3 (Ракеш Рошан / Rakesh Roshan) [2013, Индия, Фантастика, боевик, DVDRip] MVO

Ответить на тему
 
Автор Сообщение

user ®

Стаж: 12 лет

Сообщений: 15092

Пост Пост: #1 от 08-Янв-2014 19:45

[Цитировать]

Крриш 3 / Krrish 3
Страна: Индия
Жанр: Фантастика, боевик
Год выпуска: 2013
Продолжительность: 02:33:23
Перевод: Любительский (многоголосый закадровый) IndianCinemaGroup
Cубтитры: нет
Режиссер: Ракеш Рошан / Rakesh Roshan
В ролях: Приянка Чопра, Ритик Рошан, Амитабх Баччан, Насируддин Шах, Кангана Ранаут, Вивек Оберой, Раджпал Ядав, Мохниш Бехл, Сачин Кхедекар, Ариф Закария.
Описание: После победы над злодеем Доктором Сидхартом Арья, и возвращения его отца Рохита, воскресшего из мертвых, Крриш продолжает бороться против зла и спасать невинные жизни.
Теперь Кришна живет жизнью в счастливом браке с Прией, в то время как Рохит использует свои научные данные на благо общества. И Крриш — любимый супергерой каждого спасённого.
Им неизвестно, что темная сила растет в другой части мира. Каал, злобный гений, эгоистично злоупотребляющий свои силы, чтобы посеять страх, смерть и разрушение. И он пользуется поддержкой армии очень опасных существ, которых он создал сам.
Вскоре планы Каала приведены в действие, Рохит и Крриш оказываются перед лицом кризиса эпических масштабов, которые только они могут решить вместе. Когда же наконец их пути пересеклись с Каалом и его армией, ни один из них не был готов к тому, что ждёт их впереди. Каал, не только приводит мир на грань катастрофы, он также ставит на прочность силу и любовь к Кришне и его семьи. И Крриш должен каким-то образом найти силу внутри к лицу непобедимого врага. Величайшая битва между добром и злом.
Доп. информация: Перевод на русский язык: Tonyvika Спасибо!
Озвучка: IndianCinemaGroup Спасибо!
Риппер и сведение аудио: Dego
Исходник DVD-9 Спасибо! randy23
Сэмпл: http://multi-up.com/938060
Качество видео: DVDRip
Формат видео: AVI
Видео: XviD build 50, 688x288 (2.39:1), 23.976 fps, 1227 kbps avg
Аудио: MPEG Layer 3, 48 kHz, 2/0 (L,R) ch, 128.00 kbps avg

MediaInfo

General
Complete name : D:\Krrish.3.2013.DVDRip-Dego.avi
Format : AVI
Format/Info : Audio Video Interleave
File size : 1.46 GiB
Duration : 2h 33mn
Overall bit rate : 1 365 Kbps
Writing application : VirtualDubMod 1.5.10.2 (build 2540/release)
Writing library : VirtualDubMod build 2540/release
Video
ID : 0
Format : MPEG-4 Visual
Format profile : AdvancedSimple@L5
Format settings, BVOP : Yes
Format settings, QPel : No
Format settings, GMC : No warppoints
Format settings, Matrix : Default (MPEG)
Codec ID : XVID
Codec ID/Hint : XviD
Duration : 2h 33mn
Bit rate : 1 227 Kbps
Width : 688 pixels
Height : 288 pixels
Display aspect ratio : 2.35
Frame rate : 23.976 fps
Resolution : 24 bits
Colorimetry : 4:2:0
Scan type : Progressive
Bits/(Pixel*Frame) : 0.258
Stream size : 1.31 GiB (90%)
Writing library : XviD 1.2.1 (UTC 2008-12-04)
Audio
ID : 1
Format : MPEG Audio
Format version : Version 1
Format profile : Layer 3
Codec ID : 55
Codec ID/Hint : MP3
Duration : 2h 33mn
Bit rate mode : Constant
Bit rate : 128 Kbps
Channel(s) : 2 channels
Sampling rate : 48.0 KHz
Resolution : 16 bits
Stream size : 140 MiB (9%)
Alignment : Aligned on interleaves
Interleave, duration : 42 ms (1.00 video frame)
Interleave, preload duration : 504 ms
Writing library : LAME3.98
Encoding settings : -m j -V 4 -q 3 -lowpass 17 -b 128

Скриншот c названием фильма

Скриншоты

Скачать

Скачать торрент! Крриш 3 / Krrish 3 (Ракеш Рошан / Rakesh Roshan) [2013, Индия, Фантастика, боевик, DVDRip] MVO

Как скачивать? · Что такое торрент? · Рейтинг и ограничения

Сайт не распространяет и не хранит электронные версии произведений, а лишь предоставляет доступ к создаваемому пользователями каталогу ссылок на торрент-файлы, которые содержат только списки хеш-сумм

[Профиль] [ЛС]
Показать сообщения:    
Ответить на тему

Текущее время: Сегодня 03:11

Часовой пояс: GMT + 4



Вы не можете начинать темы
Вы не можете отвечать на сообщения
Вы не можете редактировать свои сообщения
Вы не можете удалять свои сообщения
Вы не можете голосовать в опросах
Вы не можете прикреплять файлы к сообщениям
Вы не можете скачивать файлы