Лерой и Стич / Leroy & Stitch (Тони Крэйг, Роберт Ганнавей / Tony Craig, Roberts Gannaway) [2006, мультфильм, фантастика, приключения, семейный, WEB-DLRip] Dub + MVO + AVO + Eng + Sub (rus, eng)

Ответить на тему
 
Автор Сообщение

user ®

Стаж: 12 лет

Сообщений: 15145

Пост Пост: #1 от 07-Янв-2014 17:20

[Цитировать]

Лерой и Стич / Leroy & Stitch
Страна : США
Жанр : мультфильм, фантастика, приключения, семейный
Продолжительность : 01:12:44
Год выпуска : 2006
Перевод 1 : Профессиональный (дублированный)
Перевод 2 : Профессиональный (многоголосый закадровый)
Перевод 3 : Авторский (Одноголосый, закадровый)
Русские субтитры : есть (внешние)
Режиссёр : Тони Крэйг, Робертс Ганнавей / Tony Craig, Roberts Gannaway
Роли озвучивали: Дэйви Чейз, Крис Сандерс, Дэвид Огден Стайерз, Кевин МакДональд, Тиа Каррере, Кевин Майкл Ричардсон, Роб Полсен, Джефф Беннетт, Зои Колдуэлл, Боб Голдтуэйт
-

-
Описание : Мы знаем, что Стич был «Экспериментальным Образцом 626-м» — но интересовала ли Вас когда-нибудь судьба первых 625? На этот раз речь пойдет о новых шутках и проказах веселого и непоседливого инопланетянина, который свалился на планету Земля и прямиком угодил в семью Лило. Теперь Стич, Пликли и Джамба — члены одной семьи.
Но Лило и Стич еще не знают, что Джамба тайно отправил на Землю всех 625 инопланетных предшественников… и злобный Капитан Ганту намеревается отправить их всех обратно. Все зависит от Лило и Стича, смогут ли они спасти свою инопланетную родню?
Доп. информация : Релиз создан на основе скаченного файла: «Leroy & Stitch (2006) 1080p WEB-DL DD5.1 H.264-TrollHD». Я добавил русские аудио дороги (перевод) к этому видео, и добавил субтитры. Русские субтитры в сети не нашёл, сделал сам на основе английских, перевод взят с дубляжа. Дубляж после подгонки к видео сохранил в другом формате.
Это AVI XviD MPEG-4 версия, рип сделан мной с того же видео файла.
Релиз : Страник 2.0
-

В семпле все аудио дорожки
-
Качество : WEB-DLRip (Исходник: Leroy & Stitch (2006) 1080p WEB-DL DD5.1 H.264-TrollHD)
Формат : AVI
Видео : XviD, 720x400 (16:9), 25.000 fps, ~2396 kbps avg, 0.333 bit/pixel
Аудио 1 : Русский, AC3, 48.0 kHz, 2 ch, ~256 kbps (Дублированный)
Аудио 2 : Русский, AC3, 48.0 kHz, 6 ch, ~448 kbps (Многоголосый, закадровый) Внешним файлом
Аудио 3 : Русский, AC3, 48.0 kHz, 2 ch, ~192 kbps (Одноголосый, закадровый)
Аудио 4 : Английский, AC3, 48.0 kHz, 6 ch, ~384 kbps (Оригинал) Внешним файлом
Субтитры : Русские (внешние), Английские (внешние): SubRip (srt)
-

MediaInfo

General Complete name : E:/Torrent_2/Leroy.&.Stitch.2006.WEB-DLRip.DUB.MVO.AVO.Eng...Stranik.2.0/Leroy.&.Stitch.2006.WEB-DLRip.DUB.MVO.AVO.Eng...Stranik.2.0.avi Format : AVI Format/Info : Audio Video Interleave Format profile : OpenDML File size : 1.45 GiB Duration : 1h 12mn Overall bit rate : 2 852 Kbps Writing application : AVI-Mux GUI 1.17.8, Aug 30 2008 12:36:58
Video #0 ID : 0 Format : xvid Codec ID : xvid Duration : 1h 12mn Bit rate : 2 396 Kbps Width : 720 pixels Height : 400 pixels Display aspect ratio : 16:9 Frame rate : 25.000 fps Bits/(Pixel*Frame) : 0.333 Stream size : 1.22 GiB (84%)
Audio #1 ID : 1 Format : AC-3 Format/Info : Audio Coding 3 Mode extension : CM (complete main) Codec ID : 2000 Duration : 1h 12mn Bit rate mode : Constant Bit rate : 256 Kbps Channel(s) : 2 channels Channel positions : Front: L R Sampling rate : 48.0 KHz Bit depth : 16 bits Compression mode : Lossy Stream size : 133 MiB (9%) Alignment : Aligned on interleaves Interleave, duration : 64 ms (1.60 video frames) Interleave, preload duration : 192 ms Title : Russian_DUB
Audio #2 ID : 2 Format : AC-3 Format/Info : Audio Coding 3 Mode extension : CM (complete main) Codec ID : 2000 Duration : 1h 12mn Bit rate mode : Constant Bit rate : 192 Kbps Channel(s) : 2 channels Channel positions : Front: L R Sampling rate : 48.0 KHz Bit depth : 16 bits Compression mode : Lossy Stream size : 99.9 MiB (7%) Alignment : Aligned on interleaves Interleave, duration : 64 ms (1.60 video frames) Interleave, preload duration : 192 ms Title : Russian_AVO

Скриншоты



Скачать

Скачать торрент! Лерой и Стич / Leroy & Stitch (Тони Крэйг, Роберт Ганнавей / Tony Craig, Roberts Gannaway) [2006, мультфильм, фантастика, приключения, семейный, WEB-DLRip] Dub + MVO + AVO + Eng + Sub (rus, eng)

Как скачивать? · Что такое торрент? · Рейтинг и ограничения

Сайт не распространяет и не хранит электронные версии произведений, а лишь предоставляет доступ к создаваемому пользователями каталогу ссылок на торрент-файлы, которые содержат только списки хеш-сумм

[Профиль] [ЛС]
Показать сообщения:    
Ответить на тему

Текущее время: Сегодня 20:28

Часовой пояс: GMT + 4



Вы не можете начинать темы
Вы не можете отвечать на сообщения
Вы не можете редактировать свои сообщения
Вы не можете удалять свои сообщения
Вы не можете голосовать в опросах
Вы не можете прикреплять файлы к сообщениям
Вы не можете скачивать файлы