Бездыханные / Breathless (Джесси Баже / Jesse Baget) [2012, США, Триллер, криминал, BDRip 720p] VO + Sub Rus, Eng + Original Eng

Ответить на тему
 
Автор Сообщение

user ®

Стаж: 7 лет 7 месяцев

Сообщений: 20008

Пост Пост: #1 от 07-Янв-2014 14:10

[Цитировать]

Бездыханные / Breathless
Страна: США
Жанр: Триллер, криминал
Год выпуска: 2012
Продолжительность: 01:31:15
Перевод: Одноголосый закадровый (Barin101)
Cубтитры: русские (barin101), английские
Оригинальная аудиодорожка: английский
Режиссер: Джесси Баже / Jesse Baget
В ролях: Джина Гершон, Келли Гиддиш, Вэл Килмер, Рэй Лиотта, Уэйн Дювалл
Описание: Жена узнаёт, что её муж совершил ограбление банка. Ударив его сковородкой и привязав к стулу, она зовёт на помощь подругу. Вместе они допрашивают мужа, пытаясь узнать, куда он спрятал 100 000 баксов. Мужик, ясное дело, в несознанку. Тогда, увлёкшись допросом, жена случайно убивает мужа из пистолета. Несчастный случай.
Теперь дамочкам предстоит нелёгкое дело: избавиться от трупа и найти деньги. А тут, как нарочно, на пороге появляется шериф, а потом и ещё кое-кто, также претендующий на добычу...
Сэмпл: http://sendfile.su/919087
Тип релиза: BDRip 720p
Контейнер: MKV
Видео: 1280 x 544 (2.353) at 23.976 fps, AVC at 4766 Кбит/сек
Аудио: AC-3 at 192 Кбит/сек, 2 канала(ов), 48,0 КГц (RUS)
Аудио: DTS at 1510 Кбит/сек, 6 канала(ов), 48,0 КГц (ENG)
Формат субтитров: softsub (SRT)

MediaInfo

Общее
Полное имя : Breathless.2012.BDRip.720p.mkv
Формат : Matroska
Размер файла : 4,12 Гбайт
Продолжительность : 1 ч. 31 м.
Общий поток : 6460 Кбит/сек
Дата кодирования : UTC 2014-01-07 01:18:32
Программа кодирования : mkvmerge v5.6.0 ('Kenya Kane') built on Jun 29 2012 15:01:44
Библиотека кодирования : libebml v1.2.3 + libmatroska v1.3.0
Видео
Идентификатор : 1
Формат : AVC
Формат/Информация : Advanced Video Codec
Профиль формата : High@L4.1
Параметр CABAC формата : Да
Параметр ReFrames формата : 11 кадры
Идентификатор кодека : V_MPEG4/ISO/AVC
Продолжительность : 1 ч. 31 м.
Битрейт : 4766 Кбит/сек
Ширина : 1280 пикс.
Высота : 544 пикс.
Соотношение сторон : 2,35:1
Частота кадров : 23,976 кадр/сек
Цветовое пространство : YUV
Подвыборка цветности : 4:2:0
Битовая глубина : 8 бит
Тип развёртки : Прогрессивная
Бит/(Пиксели*Кадры) : 0.285
Размер потока : 2,95 Гбайт (72%)
Библиотека кодирования : x264 core 125 r2200+677M 3a754e7
Настройки программы : cabac=1 / ref=11 / deblock=1:-3:-3 / analyse=0x3:0x113 / me=umh / subme=11 / psy=1 / fade_compensate=0.00 / psy_rd=1.05:0.10 / mixed_ref=1 / me_range=32 / chroma_me=1 / trellis=2 / 8x8dct=1 / cqm=0 / deadzone=21,11 / fast_pskip=0 / chroma_qp_offset=-2 / threads=12 / lookahead_threads=2 / sliced_threads=0 / nr=0 / decimate=1 / interlaced=0 / bluray_compat=0 / constrained_intra=0 / fgo=0 / bframes=6 / b_pyramid=2 / b_adapt=2 / b_bias=0 / direct=3 / weightb=1 / open_gop=0 / weightp=2 / keyint=250 / keyint_min=23 / scenecut=40 / intra_refresh=0 / rc_lookahead=40 / rc=2pass / mbtree=0 / bitrate=4766 / ratetol=1.0 / qcomp=0.70 / qpmin=0 / qpmax=69 / qpstep=4 / cplxblur=20.0 / qblur=0.5 / vbv_maxrate=20000 / vbv_bufsize=30000 / nal_hrd=none / ip_ratio=1.40 / pb_ratio=1.30 / aq=2:1.00
Язык : English
Основные цвета : BT.709-5, BT.1361, IEC 61966-2-4, SMPTE RP177
Характеристики трансфера : BT.709-5, BT.1361
Коэффициенты матрицы : BT.709-5, BT.1361, IEC 61966-2-4 709, SMPTE RP177
Аудио #1
Идентификатор : 2
Формат : AC-3
Формат/Информация : Audio Coding 3
Профиль формата : Dolby Digital
Расширение режима : CM (complete main)
Идентификатор кодека : A_AC3
Продолжительность : 1 ч. 31 м.
Вид битрейта : Постоянный
Битрейт : 192 Кбит/сек
Канал(ы) : 2 канала(ов)
Расположение каналов : Front: L R
Частота : 48,0 КГц
Битовая глубина : 16 бит
Метод сжатия : С потерями
Размер потока : 125 Мбайт (3%)
Язык : Russian
Аудио #2
Идентификатор : 3
Формат : DTS
Формат/Информация : Digital Theater Systems
Идентификатор кодека : A_DTS
Продолжительность : 1 ч. 31 м.
Вид битрейта : Постоянный
Битрейт : 1510 Кбит/сек
Канал(ы) : 6 канала(ов)
Расположение каналов : Front: L C R, Side: L R, LFE
Частота : 48,0 КГц
Битовая глубина : 24 бит
Метод сжатия : С потерями
Размер потока : 985 Мбайт (23%)
Язык : English
Текст #1
Идентификатор : 4
Формат : UTF-8
Идентификатор кодека : S_TEXT/UTF8
Идентификатор кодека/Информация : UTF-8 Plain Text
Язык : Russian
Текст #2
Идентификатор : 5
Формат : UTF-8
Идентификатор кодека : S_TEXT/UTF8
Идентификатор кодека/Информация : UTF-8 Plain Text
Язык : English

Скриншоты

Скачать

Скачать торрент!

Как скачивать? · Что такое торрент? · Рейтинг и ограничения

Сайт не распространяет и не хранит электронные версии произведений, а лишь предоставляет доступ к создаваемому пользователями каталогу ссылок на торрент-файлы, которые содержат только списки хеш-сумм

[Профиль] [ЛС]
Показать сообщения:    
Ответить на тему

Текущее время: Сегодня 15:50

Часовой пояс: GMT + 4



Вы не можете начинать темы
Вы не можете отвечать на сообщения
Вы не можете редактировать свои сообщения
Вы не можете удалять свои сообщения
Вы не можете голосовать в опросах
Вы не можете прикреплять файлы к сообщениям
Вы не можете скачивать файлы