Неудачник №1 / Anari №1 (Сандеш Коли / Sandesh Koli) [1999, Индия, Комедия, DVDRip] Sub Rus (baksterier0)

Ответить на тему
 
Автор Сообщение

user ®

Стаж: 12 лет

Сообщений: 15092

Пост Пост: #1 от 07-Янв-2014 01:55

[Цитировать]

Неудачник №1 / Anari №1
Страна: Индия
Жанр: Комедия
Год выпуска: 1999
Продолжительность: 02:41:35
Перевод: Субтитры (baksterier0)
Cубтитры: русские
Оригинальная аудиодорожка: Хинди
Режиссер: Сандеш Коли / Sandesh Koli
В ролях: Говинда, Равина Тандон, Симран, Аруна Ирани, Кадер Кхан, Сатиш Шах, Сатьендра Капур, Химани Шивпури, Прем Чопра
Описание: Раджа (Говинда) скромный официант в пятизвёздочном отеле. Однажды он обслуживает и заботится о богатом бизнесмене К.К. (Кадер Кхан), который одалживает ему костюм и некоторую сумму денег, чтобы тот мог найти и обольстить богатую женщину, жениться на ней и разбогатеть. Раджа считает Сапну (Равина Тандон) богатой и успешно добивается её любви, завоевав её сердце. Он не знает, что та простая горничная и также находится в поисках богатого принца. Сапна думает, что Раджа богатый, жизнерадостный и завидный жених Рахул Саксена. В дальнейшем, когда выясняется правда, с помощью друга Раджи, автомобильного вора Саттар-бхая, все трое придумывают заговор с целью похищения Рахула, они удерживают его с целью получения выкупа, в то время как Раджа занимает его место. После похищения Рахула, Раджа занимает его место в семье Рахула, его мачехи Шарды (Аруна Ирани), отца Дханраджа, дяди (Прем Чопра), тёти, и возлюбленной Соны. Сона оказывается дочерью «наставника» Раджи К.К., что вызывает гнев последнего, когда тот думает, что Раджа ухаживает за его дочерью. Череда похищений держит зрителя в напряжении.
Качество видео: DVDRip
Формат видео: AVI
Видео: Xvid, 704x336 pixel, 29.97 fps, 1428 kbps
Аудио: AC3, 48 kHz, 2.0 (stereo), 448 kbps
Формат субтитров: hardsub (неотключаемые)

MediaInfo

Формат : AVI
Формат/Информация : Audio Video Interleave
Профиль формата : OpenDML
Размер файла : 2,13 Гбайт
Продолжительность : 2 ч. 41 м.
Общий поток : 1888 Кбит/сек
Программа кодирования : VirtualDubMod 1.5.10.2 (build 2542/release)
Библиотека кодирования : VirtualDubMod build 2542/release
Видео
Идентификатор : 0
Формат : MPEG-4 Visual
Профиль формата : Advanced Simple@L5
Параметр BVOP формата : 1
Параметр QPel формата : Нет
Параметр GMC формата : Без точки перехода
Параметр матрицы формата : Default (H.263)
Режим смешивания : Сжатый битовый поток
Идентификатор кодека : XVID
Идентификатор кодека/Подсказка : XviD
Продолжительность : 2 ч. 41 м.
Битрейт : 1428 Кбит/сек
Ширина : 704 пикселя
Высота : 336 пикселей
Соотношение сторон : 2,095
Частота кадров : 29,970 кадров/сек
Цветовое пространство : YUV
Субдискретизация насыщенности : 4:2:0
Битовая глубина : 8 бит
Тип развёртки : Прогрессивная
Метод сжатия : С потерями
Бит/(Пиксели*Кадры) : 0.201
Размер потока : 1,61 Гбайт (76%)
Библиотека кодирования : XviD 1.2.1 (UTC 2008-12-04)
Аудио
Идентификатор : 1
Формат : AC-3
Формат/Информация : Audio Coding 3
Расширение режима : CM (complete main)
Идентификатор кодека : 2000
Продолжительность : 2 ч. 41 м.
Вид битрейта : Постоянный
Битрейт : 448 Кбит/сек
Каналы : 2 канала
Расположение каналов : Front: L R
Частота : 48,0 КГц
Битовая глубина : 16 бит
Метод сжатия : С потерями
Размер потока : 518 Мбайт (24%)
Выравнивание : Разделение по промежуткам
Продолжительность промежутка : 64 мс. (1,92 видеокадра)
Время предзагрузки промежутка : 500 мс.

Скриншот c названием фильма

Скриншоты

Скачать

Скачать торрент! Неудачник №1 / Anari №1 (Сандеш Коли / Sandesh Koli) [1999, Индия, Комедия, DVDRip] Sub Rus (baksterier0)

Как скачивать? · Что такое торрент? · Рейтинг и ограничения

Сайт не распространяет и не хранит электронные версии произведений, а лишь предоставляет доступ к создаваемому пользователями каталогу ссылок на торрент-файлы, которые содержат только списки хеш-сумм

[Профиль] [ЛС]
Показать сообщения:    
Ответить на тему

Текущее время: Сегодня 18:39

Часовой пояс: GMT + 4



Вы не можете начинать темы
Вы не можете отвечать на сообщения
Вы не можете редактировать свои сообщения
Вы не можете удалять свои сообщения
Вы не можете голосовать в опросах
Вы не можете прикреплять файлы к сообщениям
Вы не можете скачивать файлы