Выпускник / Commitment (Пак Хон Су / Park Hong Soo) [2013, Южная Корея, криминал, драма, HDRip] DVO

Ответить на тему
 
Автор Сообщение

user ®

Стаж: 11 лет

Сообщений: 15151

Пост Пост: #1 от 06-Янв-2014 19:35

[Цитировать]

Выпускник / Commitment
Страна: Южная Корея
Жанр: криминал, драма
Год выпуска: 2013
Продолжительность: 01:52:47-Перевод: Любительский (двухголосый закадровый) Ярослав Мельник & Марина Кириченко (GREEN TEA)
Cубтитры: нет
Оригинальная аудиодорожка: нет-Релиз группы: -Режиссер: Пак Хон Су / Park Hong Soo
В ролях: Чхве Сын Хён, Хан Е Ри, Чон Хо Бин
-
Описание: С целью спасения своей младшей сестры Мён Хун становится шпионом и проникает в Южную Корею. Во время учебы в старшей школе, он знакомится с тёзкой своей сестры, девушкой по имени Хэ Ин и спасает её, когда та попадает в неприятности. Правительство Южной Кореи замечает подозрительную активность подростка и охотится за ним, и в то же время его собственное начальство посылает киллера, чтобы устранить своего шпиона.- -Качество видео: HDRip (720p)
Формат видео: AVI
Видео: XviD, 720x320 (2.25:1), 24 fps, 1651 kbps avg, 0.30 bit/pixel
Аудио: Русский MPEG layer 3, 192 kbps, 2 ch

Доп. информация

Перевод на русский: Фансаб-группа Zipϟper

MediaInfo

Format : AVI
Format/Info : Audio Video Interleave
File size : 1.46 GiB
Duration : 1h 52mn
Overall bit rate : 1 853 Kbps
Writing application : VirtualDubMod 1.5.10.3 | www.virtualdub-fr.org || (build 2550/release)
Writing library : VirtualDubMod build 2550/release
Video
ID : 0
Format : MPEG-4 Visual
Format profile : Advanced Simple@L5
Format settings, BVOP : 1
Format settings, QPel : No
Format settings, GMC : No warppoints
Format settings, Matrix : Custom
Codec ID : XVID
Codec ID/Hint : XviD
Duration : 1h 52mn
Bit rate : 1 652 Kbps
Width : 720 pixels
Height : 320 pixels
Display aspect ratio : 2.25:1
Frame rate : 24.000 fps
Color space : YUV
Chroma subsampling : 4:2:0
Bit depth : 8 bits
Scan type : Progressive
Compression mode : Lossy
Bits/(Pixel*Frame) : 0.299
Stream size : 1.30 GiB (89%)
Writing library : XviD 73
Audio
ID : 1
Format : MPEG Audio
Format version : Version 1
Format profile : Layer 3
Codec ID : 55
Codec ID/Hint : MP3
Duration : 1h 52mn
Bit rate mode : Constant
Bit rate : 192 Kbps
Channel(s) : 2 channels
Sampling rate : 44.1 KHz
Compression mode : Lossy
Stream size : 155 MiB (10%)
Alignment : Split accross interleaves
Interleave, duration : 42 ms (1.00 video frame)
Interleave, preload duration : 500 ms

Скриншот с названием фильма

Скриншоты

Скачать

Скачать торрент! Выпускник / Commitment (Пак Хон Су / Park Hong Soo) [2013, Южная Корея, криминал, драма, HDRip] DVO

Как скачивать? · Что такое торрент? · Рейтинг и ограничения

Сайт не распространяет и не хранит электронные версии произведений, а лишь предоставляет доступ к создаваемому пользователями каталогу ссылок на торрент-файлы, которые содержат только списки хеш-сумм

[Профиль] [ЛС]
Показать сообщения:    
Ответить на тему

Текущее время: Сегодня 22:58

Часовой пояс: GMT + 4



Вы не можете начинать темы
Вы не можете отвечать на сообщения
Вы не можете редактировать свои сообщения
Вы не можете удалять свои сообщения
Вы не можете голосовать в опросах
Вы не можете прикреплять файлы к сообщениям
Вы не можете скачивать файлы