Француз (Вера Сторожева) [2003, мелодрама, комедия, DVDRip-AVC]

Ответить на тему
 
Автор Сообщение

user ®

Стаж: 7 лет 7 месяцев

Сообщений: 20008

Пост Пост: #1 от 05-Янв-2014 18:05

[Цитировать]

Француз(2 серии)
Жанр: комедия, мелодрама
Год выпуска: 2003
Продолжительность: 01:41:04 (00:48:50 + 00:52:14)
Режиссёр: Вера Сторожева
В ролях: Тьери Монфрай, Мария Голубкина, Игорь (Гарик) Сукачев, Екатерина Вуличенко, Станислав Дужников, Михаил Ефремов, Бернар Пассави, Нина Русланова, Сергей Попов, Березуцкая, Владимир Довжик, Наталья Смирнова, Мария Зорина, Андрей Кайков, Антонина Кончакова, Павел Деревянко, Инга Оболдина, Ирина Рахманова
Описание: Все знают, что чудес не бывает, но продолжают верить в них, ждать и надеяться. Особенно под Новый год. А эта история произошла как раз накануне. Итак, герои: Он - потомственный аристократ, барон Поль де Руссо (Тьерри Монфре) - жил в роскошном замке под Парижем и мечтал о настоящем искреннем чувстве. Увы, в его ситуации это было практически невозможно: женщины искали общества Поля исключительно благодаря его богатству и положению в обществе. Единственное спасение для романтической души барона - письма русской девушки Иры, которую нашел через брачное агентство верный камердинер Гийом (Бернар Пассави). Она - скромная переводчица Анна (Мария Голубкина). Закончив МГУ, не стала искать престижную работу в столице и вернулась в родную Глухую Потьму. От безысходности решила выйти замуж за дальнобойщика Ленчика (Гарик Сукачев). Единственное, что спасало Анну от тоски - письма, которые она от имени своей подруги Иры писала во Францию. По счастливой случайности судьба решила свести двух героев вместе. И эта встреча изменила не только их жизнь, но и судьбы всех обитателей тихого провинциального городка..
Качество видео: DVDRip-AVC
Формат видео: MKV
Видео 1: 704x380 (1.85:1), 23.976 fps, MPEG-4 AVC, ~1930 kbps avg, 0.302 bit/pixel - 1 серия
Видео 2: 704x380 (1.85:1), 23.976 fps, MPEG-4 AVC, ~1800 kbps avg, 0.281 bit/pixel - 2 серия
Аудио: 48 kHz, AC3 Dolby Digital, 2/0 (L,R) ch, ~192.00 kbps avg

Автор: nnlabetik

MediaInfo

Общее
Уникальный идентификатор : 171016198685864309376889910031843294007 (0x80A88594D83786A1A3B8689EBC137B37)
Полное имя : K:\Француз 2003\Franczuz_1_2003.x264.(AVC).mkv
Формат : Matroska
Версия формата : Version 4 / Version 2
Размер файла : 744 Мбайт
Продолжительность : 48 м.
Общий поток : 2131 Кбит/сек
Название фильма : Француз / 2004 -=NN@LIFE=-
Дата кодирования : UTC 2014-01-05 06:59:56
Программа кодирования : mkvmerge v6.6.0 ('The Edge Of The In Between') built on Dec 1 2013 17:55:00
Библиотека кодирования : libebml v1.3.0 + libmatroska v1.4.1
Видео
Идентификатор : 1
Формат : AVC
Формат/Информация : Advanced Video Codec
Профиль формата : High@L4.1
Параметр CABAC формата : Да
Параметр ReFrames формата : 8 кадров
Идентификатор кодека : V_MPEG4/ISO/AVC
Продолжительность : 48 м.
Битрейт : 1937 Кбит/сек
Ширина : 704 пикселя
Высота : 380 пикселей
Соотношение сторон : 1,85:1
Режим частоты кадров : Постоянный
Частота кадров : 23,976 кадра/сек
Цветовое пространство : YUV
Субдискретизация насыщенности : 4:2:0
Битовая глубина : 8 бит
Тип развёртки : Прогрессивная
Бит/(Пиксели*Кадры) : 0.302
Размер потока : 663 Мбайт (89%)
Заголовок : Rip by nnlabetik
Библиотека кодирования : x264 core 130 r2273 b3065e6
Настройки программы : cabac=1 / ref=8 / deblock=1:-2:-1 / analyse=0x3:0x133 / me=umh / subme=10 / psy=1 / psy_rd=1.00:0.10 / mixed_ref=1 / me_range=32 / chroma_me=1 / trellis=2 / 8x8dct=1 / cqm=0 / deadzone=21,11 / fast_pskip=0 / chroma_qp_offset=-3 / threads=6 / lookahead_threads=1 / sliced_threads=0 / nr=0 / decimate=1 / interlaced=0 / bluray_compat=0 / constrained_intra=0 / bframes=10 / b_pyramid=2 / b_adapt=2 / b_bias=0 / direct=3 / weightb=1 / open_gop=0 / weightp=2 / keyint=250 / keyint_min=23 / scenecut=40 / intra_refresh=0 / rc_lookahead=50 / rc=2pass / mbtree=1 / bitrate=1937 / ratetol=1.0 / qcomp=0.60 / qpmin=0 / qpmax=69 / qpstep=4 / cplxblur=20.0 / qblur=0.5 / ip_ratio=1.40 / aq=1:1.00
Язык : Russian
Default : Да
Forced : Нет
Аудио
Идентификатор : 2
Формат : AC-3
Формат/Информация : Audio Coding 3
Расширение режима : CM (complete main)
Параметр Endianness формата : Big
Идентификатор кодека : A_AC3
Продолжительность : 48 м.
Вид битрейта : Постоянный
Битрейт : 192 Кбит/сек
Каналы : 2 канала
Расположение каналов : Front: L R
Частота : 48,0 КГц
Битовая глубина : 16 бит
Метод сжатия : С потерями
Размер потока : 67,1 Мбайт (9%)
Язык : Russian
Default : Да
Forced : Нет
Меню
00:00:00.000 : en:Chapter 01
00:05:52.000 : en:Chapter 02
00:11:07.901 : en:Chapter 03
00:15:19.301 : en:Chapter 04
00:18:30.301 : en:Chapter 05
00:22:21.102 : en:Chapter 06
00:24:53.903 : en:Chapter 07
00:30:45.804 : en:Chapter 08
00:37:05.904 : en:Chapter 09
00:39:32.204 : en:Chapter 10
00:41:54.005 : en:Chapter 11
00:45:40.606 : en:Chapter 12
00:48:47.006 : en:Chapter 13

Скриншоты

Скачать

Скачать торрент!

Как скачивать? · Что такое торрент? · Рейтинг и ограничения

Сайт не распространяет и не хранит электронные версии произведений, а лишь предоставляет доступ к создаваемому пользователями каталогу ссылок на торрент-файлы, которые содержат только списки хеш-сумм

[Профиль] [ЛС]
Показать сообщения:    
Ответить на тему

Текущее время: Сегодня 18:22

Часовой пояс: GMT + 4



Вы не можете начинать темы
Вы не можете отвечать на сообщения
Вы не можете редактировать свои сообщения
Вы не можете удалять свои сообщения
Вы не можете голосовать в опросах
Вы не можете прикреплять файлы к сообщениям
Вы не можете скачивать файлы