Месть снежной королевы / The Snow Queen\'s Revenge (Мартин Гэйтс / Martin Gates) [1996 г., мультфильм, DVB]

Ответить на тему
 
Автор Сообщение

user ®

Стаж: 12 лет

Сообщений: 15145

Пост Пост: #1 от 03-Янв-2014 17:20

[Цитировать]

Месть снежной королевы / The Snow Queen's Revenge
-
Год выпуска: 1996
Страна: Великобритания, Martin Gates Productions
Жанр: мультфильм
Перевод: Профессиональный (дублированный) по заказу ЗАО «Первый канал. Всемирная сеть»
Продолжительность: 01:03:02
Русские субтитры: нет
Режиссёр: Мартин Гэйтс / Martin Gates-Описание: Снежная королева мечтает отомстить. Чтобы, наконец, избавиться от злой волшебницы, девочка опять отправляется в царство холода. В пути ей помогают огромная птица, маленький воробей и сказочный талисман, а в конце даже сама природа восстает против ледяной колдуньи...-Доп. информация:
-Трансляция спутникового канала:

Семпл: http://yadi.sk/d/qUXw8glNFMrJn-Качество: DVB
Формат: MPEG
Видео кодек: MPEG2
Аудио кодек: MPEG Audio (Version 1) (Layer 2)
Видео: MPEG 2, 720 x 576, 25 fps, 3400 kbps
Аудио: MPEG Audio (Version 1) (Layer 2), 2 Ch, 48 KHz, 192 kbps-

MediaInfo

G:\Месть снежной королевы. (1996)_DVB by SLuMeP.mpg
General
Complete name : G:\Месть снежной королевы. (1996)_DVB by SLuMeP.mpg
Format : MPEG-PS
File size : 1.61 GiB
Duration : 1h 3mn
Overall bit rate mode : Variable
Overall bit rate : 3 657 Kbps
Writing library : (c) 1998-2010 Womble Multimedia, Inc. / MPEG Video Wizard DVD 5.0.0.114 (01/2010) / Apr 20 2010
Video #224
ID : 224 (0xE0)
Format : MPEG Video
Format version : Version 2
Format profile : Main@Main
Format settings, BVOP : Yes
Format settings, Matrix : Custom
Format settings, GOP : M=3, N=12
Duration : 1h 3mn
Bit rate mode : Variable
Bit rate : 3 393 Kbps
Maximum bit rate : 5 000 Kbps
Width : 720 pixels
Height : 576 pixels
Display aspect ratio : 4:3
Frame rate : 25.000 fps
Standard : PAL
Color space : YUV
Chroma subsampling : 4:2:0
Bit depth : 8 bits
Scan type : Interlaced
Scan order : Top Field First
Compression mode : Lossy
Bits/(Pixel*Frame) : 0.327
Stream size : 1.49 GiB (93%)
Writing library : (c) 1998-2010 Womble Multimedia, Inc. / MPEG Video Wizard DVD 5.0.0.114 (01/2010) / Apr 20 2010
Audio #192
ID : 192 (0xC0)
Format : MPEG Audio
Format version : Version 1
Format profile : Layer 2
Duration : 1h 3mn
Bit rate mode : Constant
Bit rate : 192 Kbps
Channel(s) : 2 channels
Sampling rate : 48.0 KHz
Compression mode : Lossy
Stream size : 86.6 MiB (5%)
Menu

Скриншоты

Скачать

Скачать торрент! Месть снежной королевы / The Snow Queen\'s Revenge (Мартин Гэйтс / Martin Gates) [1996 г., мультфильм, DVB]

Как скачивать? · Что такое торрент? · Рейтинг и ограничения

Сайт не распространяет и не хранит электронные версии произведений, а лишь предоставляет доступ к создаваемому пользователями каталогу ссылок на торрент-файлы, которые содержат только списки хеш-сумм

[Профиль] [ЛС]
Показать сообщения:    
Ответить на тему

Текущее время: Сегодня 11:02

Часовой пояс: GMT + 4



Вы не можете начинать темы
Вы не можете отвечать на сообщения
Вы не можете редактировать свои сообщения
Вы не можете удалять свои сообщения
Вы не можете голосовать в опросах
Вы не можете прикреплять файлы к сообщениям
Вы не можете скачивать файлы