Отдать концы (Таисия Игуменцева) [2013, комедия, SATRip]

Ответить на тему
 
Автор Сообщение

user ®

Стаж: 7 лет 7 месяцев

Сообщений: 20008

Пост Пост: #1 от 01-Янв-2014 00:50

[Цитировать]

Отдать концы
Жанр: комедия
Год выпуска: 2013
Продолжительность: 01:36:35
Режиссёр: Таисия Игуменцева
В ролях: Сергей Аброскин, Максим Виторган, Ирина Денисова, Анна Рудь, Ёла Санько, Юрис Лауциньш, Алина Сергеева, Дмитрий Куличков
Описание: Добрая сказка о забавных обитателях одной маленькой деревушки на краю Земли. Поверив в то, что через сутки наступит конец света, каждый из них наконец-то отваживается сделать то, на что никогда не решался. Апокалипсис сдвигает их с привычных мест, но… так и не происходит. И приходится милым чудакам заново учиться любить, драться и выживать…
Сэмпл: http://sendfile.su/916498
Качество видео: SATRip
Формат видео: AVI
Видео: 720x400 (1.80:1). 25 fps. XviD build 50. 1705 kbps avg. 0.24 bit/pixel
Аудио: 48 kHz. AC3 Dolby Digital. 3/2 (L,C,R,l,r) + LFE ch. 448 kbps

MediaInfo

Otdatj.koncy.2013.O.DVDRip.1.46Gb.avi
Format : AVI
Format/Info : Audio Video Interleave
File size : 1.46 GiB
Duration : 1h 36mn
Overall bit rate : 2 164 Kbps
Writing application : VirtualDubMod 1.5.10.3 | www.virtualdub-fr.org || (build 2550/release)
Writing library : VirtualDubMod build 2550/release
Video #0
ID : 0
Format : MPEG-4 Visual
Format profile : Advanced Simple@L5
Format settings, BVOP : 2
Format settings, QPel : No
Format settings, GMC : No warppoints
Format settings, Matrix : Default (MPEG)
Codec ID : XVID
Codec ID/Hint : XviD
Duration : 1h 36mn
Bit rate : 1 706 Kbps
Width : 720 pixels
Height : 400 pixels
Display aspect ratio : 16:9
Frame rate : 25.000 fps
Color space : YUV
Chroma subsampling : 4:2:0
Bit depth : 8 bits
Scan type : Progressive
Compression mode : Lossy
Bits/(Pixel*Frame) : 0.237
Stream size : 1.15 GiB (79%)
Writing library : XviD 1.2.1 (UTC 2008-12-04)
Audio #1
ID : 1
Format : AC-3
Format/Info : Audio Coding 3
Mode extension : CM (complete main)
Codec ID : 2000
Duration : 1h 36mn
Bit rate mode : Constant
Bit rate : 448 Kbps
Channel(s) : 6 channels
Channel positions : Front: L C R, Side: L R, LFE
Sampling rate : 48.0 KHz
Bit depth : 16 bits
Compression mode : Lossy
Stream size : 310 MiB (21%)
Alignment : Split accross interleaves
Interleave, duration : 40 ms (1.00 video frame)
Interleave, preload duration : 500 ms

Скриншот c названием фильма

Скриншоты

Скачать

Скачать торрент!

Как скачивать? · Что такое торрент? · Рейтинг и ограничения

Сайт не распространяет и не хранит электронные версии произведений, а лишь предоставляет доступ к создаваемому пользователями каталогу ссылок на торрент-файлы, которые содержат только списки хеш-сумм

[Профиль] [ЛС]
Показать сообщения:    
Ответить на тему

Текущее время: Сегодня 11:45

Часовой пояс: GMT + 4



Вы не можете начинать темы
Вы не можете отвечать на сообщения
Вы не можете редактировать свои сообщения
Вы не можете удалять свои сообщения
Вы не можете голосовать в опросах
Вы не можете прикреплять файлы к сообщениям
Вы не можете скачивать файлы