Ральф / Wreck-It Ralph (Рич Мур / Rich Moore) [2012, мультфильм, комедия, приключения, семейный, BDRip] Dub

Ответить на тему
 
Автор Сообщение

user ®

Стаж: 13 лет

Сообщений: 15041

Пост Пост: #1 от 31-Дек-2013 01:45

[Цитировать]

Ральф / Wreck-It Ralph
«Хорошего друга должно быть много»
Страна: США
Жанр: мультфильм, комедия, приключения, семейный
Продолжительность: 01:41:13
Год выпуска: 2012
Перевод: Профессиональный (дублированный)
Русские субтитры: нет
Режиссёр: Рич Мур / Rich Moore--Роли озвучивали: Джон Си Райли (Станислав Дужников), Джек МакБрайер (Александр Гудков), Сара Силверман (Наталия Медведева), Джейн Линч (Регина Щукина), Алан Тьюдик (Валентин Морозов), Джо Ло Трульо (Станислав Концевич), Минди Калинг, Эд О’Нил, Деннис Хейсбёрт, Эди МакКлёрг, Рэймонд С. Перси, Джесс Харнелл, Рэйчел Харрис, Скайлар Эстин, Адам Каролла, Хорэйшио Сэнс, Морис ЛаМарш, Стефани Скотт, Джон Ди Маджио, Рич Мур, Кэти Лоус, Джеми Элман--Описание: Ральф — второстепенный персонаж восьмибитной компьютерной игры, и ему надоело находиться в тени главного героя, мастера на все руки Феликса, который всегда появляется, чтобы «исправить» ситуацию! После тридцати лет добросовестной работы в роли злодея, в течение которых все похвалы выпадали на долю Феликса, Ральф больше не хочет быть плохим.
Он решает отправиться в путешествие по аркадным играм разных жанров, чтобы доказать всем, что и он тоже может быть героем. На своем пути Ральф встречает героев разных игр — хладнокровную сержанта Калхун из игры Hero’s Duty, оберегающую планету от нашествия инопланетных захватчиков, и сладкую на вид, но острую на язычок Сластену фон Дю, чье существование в гоночном симуляторе Sugar Rush внезапно оказывается под угрозой. Наконец-то Ральфу выпадает шанс показать, что он умеет не только разрушать!--Качество: BDRip исходник BDRemux 1080p/HDClub
Формат: AVI
Видео: 688x288 (2.40:1), 23.976 fps, XviD 65 ~892 kbps avg, 0.188 bit/pixel
Аудио: 48 kHz, MPEG Layer 3, 2 channels, 128 kbps
Субтитры: отсутствуют

Подробные технические данные

GeneralComplete name : Ральф.aviFormat : AVIFormat/Info : Audio Video InterleaveFile size : 745 MiBDuration : 1h 41mnOverall bit rate : 1 029 KbpsWriting application : VirtualDubMod 1.5.10.2 (build 2540/release)Writing library : VirtualDubMod build 2540/release
VideoID : 0Format : MPEG-4 VisualFormat profile : Advanced Simple@L5Format settings, BVOP : 1Format settings, QPel : NoFormat settings, GMC : No warppointsFormat settings, Matrix : CustomCodec ID : XVIDCodec ID/Hint : XviDDuration : 1h 41mnBit rate : 892 KbpsWidth : 688 pixelsHeight : 288 pixelsDisplay aspect ratio : 2.40:1Frame rate : 23.976 fpsColor space : YUVChroma subsampling : 4:2:0Bit depth : 8 bitsScan type : ProgressiveCompression mode : LossyBits/(Pixel*Frame) : 0.188Stream size : 646 MiB (87%)Writing library : XviD 65
AudioID : 1Format : MPEG AudioFormat version : Version 1Format profile : Layer 3Mode : Joint stereoMode extension : MS StereoCodec ID : 55Codec ID/Hint : MP3Duration : 1h 41mnBit rate mode : ConstantBit rate : 128 KbpsChannel count : 2 channelsSampling rate : 48.0 KHzCompression mode : LossyStream size : 92.7 MiB (12%)Alignment : Aligned on interleavesInterleave, duration : 42 ms (1.00 video frame)Interleave, preload duration : 504 ms

Скриншоты

Скачать

Скачать торрент! Ральф / Wreck-It Ralph (Рич Мур / Rich Moore) [2012, мультфильм, комедия, приключения, семейный, BDRip] Dub

Как скачивать? · Что такое торрент? · Рейтинг и ограничения

Сайт не распространяет и не хранит электронные версии произведений, а лишь предоставляет доступ к создаваемому пользователями каталогу ссылок на торрент-файлы, которые содержат только списки хеш-сумм

[Профиль] [ЛС]
Показать сообщения:    
Ответить на тему

Текущее время: Сегодня 19:08

Часовой пояс: GMT + 4



Вы не можете начинать темы
Вы не можете отвечать на сообщения
Вы не можете редактировать свои сообщения
Вы не можете удалять свои сообщения
Вы не можете голосовать в опросах
Вы не можете прикреплять файлы к сообщениям
Вы не можете скачивать файлы