Нарковойна / Du zhan (Джонни То / Johnnie To) [2012, Китай, Гонконг, криминал, боевик, драма, HDRip] VO (den904)

Ответить на тему
 
Автор Сообщение

user ®

Стаж: 11 лет

Сообщений: 15151

Пост Пост: #1 от 30-Дек-2013 00:50

[Цитировать]

Нарковойна / Du zhan
Страна: Китай, Гонконг
Жанр: криминал, боевик, драма
Год выпуска: 2012
Продолжительность: 01:46:29
Перевод: Одноголосый закадровый den904
Cубтитры: нет
Оригинальная аудиодорожка: нет
Режиссер: Джонни То / Johnnie To
В ролях: Луис Ку, Сунь Хунлэй, И Хуан, Мишель Йе, Сиу-Фай Чунг, Уоллес Чунг, Тао Гуо, Ка Танг Лам, Сует Лам, Гуанджи Ли
Описание: Капитан полиции Чжан Кто из отдела по борьбе с незаконным оборотом наркотиков, начинает допрос наркобарона по имени Тимми Чой после того как он был арестован. Чтобы избежать смертной казни, Чой обязуется раскрыть информацию о своих партнерах. Удастся ли ему запутать следствие и выйти сухим из воды или же ниточка оборвётся на середине...
Сэмпл: http://sendfile.su/915656
Качество видео: HDRip
Формат видео: AVI
Видео: 720x304 (2.37:1), 24.000 fps, XviD, ~1571 kbps avg, 0.30 bit/pixel
Аудио: 48 kHz, AC3 Dolby Digital, 3/2 (L,C,R,l,r) + LFE ch, ~384 kbps

MediaInfo

General
Complete name : Нарковойна (Du zhan).2012.L1.HDRip VO den904.avi
Format : AVI
Format/Info : Audio Video Interleave
File size : 1.46 GiB
Duration : 1h 46mn
Overall bit rate : 1 965 Kbps
Writing application : VirtualDubMod 1.5.10.3 | www.virtualdub-fr.org || (build 2550/release)
Writing library : VirtualDubMod build 2550/release
Video
ID : 0
Format : MPEG-4 Visual
Format profile : Advanced Simple@L5
Format settings, BVOP : 2
Format settings, QPel : No
Format settings, GMC : No warppoints
Format settings, Matrix : Default (MPEG)
Codec ID : DX50
Codec ID/Hint : DivX 5
Duration : 1h 46mn
Bit rate : 1 571 Kbps
Width : 720 pixels
Height : 304 pixels
Display aspect ratio : 2.35:1
Frame rate : 24.000 fps
Color space : YUV
Chroma subsampling : 4:2:0
Bit depth : 8 bits
Scan type : Progressive
Compression mode : Lossy
Bits/(Pixel*Frame) : 0.299
Stream size : 1.17 GiB (80%)
Writing library : XviD 1.2.1 (UTC 2008-12-04)
Audio
ID : 1
Format : AC-3
Format/Info : Audio Coding 3
Mode extension : CM (complete main)
Format settings, Endianness : Big
Codec ID : 2000
Duration : 1h 46mn
Bit rate mode : Constant
Bit rate : 384 Kbps
Channel(s) : 6 channels
Channel positions : Front: L C R, Side: L R, LFE
Sampling rate : 48.0 KHz
Bit depth : 16 bits
Compression mode : Lossy
Stream size : 293 MiB (20%)
Alignment : Split accross interleaves
Interleave, duration : 42 ms (1.00 video frame)
Interleave, preload duration : 500 ms

Скриншот с названием

Скриншоты



Скачать

Скачать торрент! Нарковойна / Du zhan (Джонни То / Johnnie To) [2012, Китай, Гонконг, криминал, боевик, драма, HDRip] VO (den904)

Как скачивать? · Что такое торрент? · Рейтинг и ограничения

Сайт не распространяет и не хранит электронные версии произведений, а лишь предоставляет доступ к создаваемому пользователями каталогу ссылок на торрент-файлы, которые содержат только списки хеш-сумм

[Профиль] [ЛС]
Показать сообщения:    
Ответить на тему

Текущее время: Сегодня 16:41

Часовой пояс: GMT + 4



Вы не можете начинать темы
Вы не можете отвечать на сообщения
Вы не можете редактировать свои сообщения
Вы не можете удалять свои сообщения
Вы не можете голосовать в опросах
Вы не можете прикреплять файлы к сообщениям
Вы не можете скачивать файлы