Огги и тараканы / Невероятные приключения кота / Oggy et les cafards (Оливер Жан-Мари / Oliver Jean-Marie) [2013, Франция, мультфильм, комедия, семейный, HDRip]

Ответить на тему
 
Автор Сообщение

user ®

Стаж: 12 лет

Сообщений: 15145

Пост Пост: #1 от 29-Дек-2013 18:25

[Цитировать]

Огги и тараканы / Невероятные приключения кота / Oggy et les cafards
Страна: Франция
Жанр: мультфильм, комедия, семейный
Год выпуска: 2013
Продолжительность: 01:25:27
Перевод: Не требуется
Cубтитры: нет
Оригинальная аудиодорожка: нет
Режиссер: Оливер Жан-Мари / Oliver Jean-Marie
В ролях: N/A
Описание: Добродушный кот Огги любит поесть, поспать и помечтать о высоком. Но его вечно одолевают несносные соседи, отравляя его жизнь злыми шутками и приколами. Кот гоняется за ними с неослабевающим азартом, придумывает всё новые и новые хитроумные уловки, но увы… Покой ему только снится.
Сэмпл: http://rghost.ru/51279408
Качество видео: HDRip
Формат видео: AVI
Видео: 720x400 (1.80:1), 23.976 fps, XviD build 73 ~1083 kbps avg, 0.16 bit/pixel
Аудио: 48 kHz, MPEG Layer 3, 2 ch, ~128.00 kbps avg

MediaInfo

Общее
Полное имя : C:\Users\Deadmauvlad\Desktop\Релизы На выкладку\Neverojatnye.prikljuchenija.kota.2013.HDRip.Deadmauvlad.avi
Формат : AVI
Формат/Информация : Audio Video Interleave
Размер файла : 746 Мбайт
Продолжительность : 1 ч. 25 м.
Общий поток : 1221 Кбит/сек
Название фильма : Neverojatnye.prikljuchenija.kota.2013.HDRip.Deadmauvlad
Режиссёр : Deadmauvlad
Жанр : Genre_00+
Программа кодирования : VirtualDubMod 1.5.10.3 | www.virtualdub-fr.org || (build 2550/release)
Формат оригинала/Имя : Мультик
Правообладатель : Goldenhshara
Видео
Идентификатор : 0
Формат : MPEG-4 Visual
Профиль формата : Advanced Simple@L5
Параметр BVOP формата : 1
Параметр QPel формата : Нет
Параметр GMC формата : Без точки перехода
Параметр матрицы формата : Default (MPEG)
Идентификатор кодека : XVID
Идентификатор кодека/Подсказка : XviD
Продолжительность : 1 ч. 25 м.
Битрейт : 1083 Кбит/сек
Ширина : 720 пикселей
Высота : 400 пикселей
Соотношение сторон : 16:9
Частота кадров : 23,976 кадра/сек
Цветовое пространство : YUV
Субдискретизация насыщенности : 4:2:0
Битовая глубина : 8 бит
Тип развёртки : Прогрессивная
Метод сжатия : С потерями
Бит/(Пиксели*Кадры) : 0.157
Размер потока : 662 Мбайт (89%)
Библиотека кодирования : XviD 73
Аудио
Идентификатор : 1
Формат : MPEG Audio
Версия формата : Version 1
Профиль формата : Layer 3
Идентификатор кодека : 55
Идентификатор кодека/Подсказка : MP3
Продолжительность : 1 ч. 25 м.
Вид битрейта : Постоянный
Битрейт : 128 Кбит/сек
Каналы : 2 канала
Частота : 48,0 КГц
Метод сжатия : С потерями
Размер потока : 78,2 Мбайт (10%)
Выравнивание : Соединение по промежуткам
Продолжительность промежутка : 42 мс. (1,00 видеокадр)
Время предзагрузки промежутка : 504 мс.
Библиотека кодирования : LAME3.99r
Настройки программы : -m s -V 4 -q 2 -lowpass 17 -b 128

Скриншот c названием фильма

Rip Deadmauvlad
R.G Goldenshara
Чистые Рипы без рекламы и логотиповПриятного просмотра © Deadmauvlad
Скачать

Скачать торрент! Огги и тараканы / Невероятные приключения кота / Oggy et les cafards (Оливер Жан-Мари / Oliver Jean-Marie) [2013, Франция, мультфильм, комедия, семейный, HDRip]

Как скачивать? · Что такое торрент? · Рейтинг и ограничения

Сайт не распространяет и не хранит электронные версии произведений, а лишь предоставляет доступ к создаваемому пользователями каталогу ссылок на торрент-файлы, которые содержат только списки хеш-сумм

[Профиль] [ЛС]
Показать сообщения:    
Ответить на тему

Текущее время: Сегодня 12:44

Часовой пояс: GMT + 4



Вы не можете начинать темы
Вы не можете отвечать на сообщения
Вы не можете редактировать свои сообщения
Вы не можете удалять свои сообщения
Вы не можете голосовать в опросах
Вы не можете прикреплять файлы к сообщениям
Вы не можете скачивать файлы