Хулиган Ратор / Rowdy Rathore (Прабху Дева / Prabhu Deva) [2012, Индия, Боевик, комедия, HDRip] DVO

Ответить на тему
 
Автор Сообщение

user ®

Стаж: 13 лет

Сообщений: 15070

Пост Пост: #1 от 29-Дек-2013 03:15

[Цитировать]

Хулиган Ратор / Rowdy Rathore
Страна: Индия
Жанр: Боевик, комедия
Год выпуска: 2012
Продолжительность: 02:23:35
Перевод: Любительский (двухголосый закадровый) [Марк Дэйвс и Элайна Мэллори]
Cубтитры: нет
Режиссер: Прабху Дева / Prabhu Deva
В ролях: Акшай Кумар, Анант Джог, Виджай Чандрашекхар, Гурдип Кохли, Даршан Даривала, Кааял Вашишт, Сонакши Синха
Описание: Шива (Акшай Кумар), мелкий воришка из Мумбаи, влюбляется в красотку Паро (Сонакши Синха), приехавшую в Мумбаи на свадьбу. Она отвечает ему взаимностью, и он решает ради любви к ней завязать с воровством. Только перед этим он хочет сорвать последний огромный куш. Именно таким образом он знакомится с Чинки, маленькой девочкой, которая сообщает Шиве, что тот её отец. Эта новость переворачивает мир вокруг него. С одной стороны, у Шивы просыпаются отцовские чувства и он хочет заботиться о невинном ребёнке, с другой стороны, он не знает, как отреагирует Паро на эту новость, и пытается скрывать ребёнка от неё. В конце концов, всё тайное становится явным: Паро узнаёт о Чинки и в сердцах бросает Шиву. Как будто этого было мало, на убитого горем Шиву нападают неизвестные громилы и приводят его к настоящему отцу Чинки... который похож на него как две капли воды. Именно в этот момент начинается роковая перестрелка, которая коренным образом изменит дальнейшую жизнь Шивы.
Доп. информация: Исходник BDRip (1080p) (СПАСИБО! jasinpapa)
Перевод субтитров: Янина и Марик (спасибо!)
Творческая озвучка: Марк Дэйвс и Элайна Мэллори (спасибо!)
Риппер и сведение аудио: Dego
Сэмпл: http://sendfile.su/915454
Качество видео: HDRip
Формат видео: AVI
Видео: XviD build 50, 688x288 (2.39:1), 24.000 fps, 1318 kbps avg
Аудио: MPEG Layer 3, 48 kHz, 2/0 (L,R) ch, 128.00 kbps avg

MediaInfo

General
Complete name : D:\Huligan.Rator.2012.XviD.HDRip-Dego.avi
Format : AVI
Format/Info : Audio Video Interleave
File size : 1.46 GiB
Duration : 2h 23mn
Overall bit rate : 1 456 Kbps
Writing application : VirtualDubMod 1.5.10.2 (build 2540/release)
Writing library : VirtualDubMod build 2540/release
Video
ID : 0
Format : MPEG-4 Visual
Format profile : AdvancedSimple@L5
Format settings, BVOP : Yes
Format settings, QPel : No
Format settings, GMC : No warppoints
Format settings, Matrix : Default (MPEG)
Codec ID : XVID
Codec ID/Hint : XviD
Duration : 2h 23mn
Bit rate : 1 319 Kbps
Width : 688 pixels
Height : 288 pixels
Display aspect ratio : 2.35
Frame rate : 24.000 fps
Resolution : 24 bits
Colorimetry : 4:2:0
Scan type : Progressive
Bits/(Pixel*Frame) : 0.277
Stream size : 1.32 GiB (91%)
Writing library : XviD 1.2.1 (UTC 2008-12-04)
Audio
ID : 1
Format : MPEG Audio
Format version : Version 1
Format profile : Layer 3
Codec ID : 55
Codec ID/Hint : MP3
Duration : 2h 23mn
Bit rate mode : Constant
Bit rate : 128 Kbps
Channel(s) : 2 channels
Sampling rate : 48.0 KHz
Resolution : 16 bits
Stream size : 131 MiB (9%)
Alignment : Aligned on interleaves
Interleave, duration : 42 ms (1.00 video frame)
Interleave, preload duration : 504 ms

Скриншот c названием фильма

Скриншоты

Скачать

Скачать торрент! Хулиган Ратор / Rowdy Rathore (Прабху Дева / Prabhu Deva) [2012, Индия, Боевик, комедия, HDRip] DVO

Как скачивать? · Что такое торрент? · Рейтинг и ограничения

Сайт не распространяет и не хранит электронные версии произведений, а лишь предоставляет доступ к создаваемому пользователями каталогу ссылок на торрент-файлы, которые содержат только списки хеш-сумм

[Профиль] [ЛС]
Показать сообщения:    
Ответить на тему

Текущее время: Сегодня 15:15

Часовой пояс: GMT + 4



Вы не можете начинать темы
Вы не можете отвечать на сообщения
Вы не можете редактировать свои сообщения
Вы не можете удалять свои сообщения
Вы не можете голосовать в опросах
Вы не можете прикреплять файлы к сообщениям
Вы не можете скачивать файлы