Золотые ножницы (Михаил Жерневский) [2012, комедийная мелодрама, SATRip]

Ответить на тему
 
Автор Сообщение

user ®

Стаж: 7 лет 7 месяцев

Сообщений: 20008

Пост Пост: #1 от 29-Дек-2013 03:15

[Цитировать]

Золотые ножницы
Жанр: комедийная мелодрама
Год выпуска: 2012
Продолжительность: 01:32:03
Режиссёр: Михаил Жерневский
В ролях: Сергей Мухин, Ольга Сухарева, Сергей Комаров (II), Евгения Гирзекорн, Евгений Никитин, Владимир Воронков, Ирина Шеянова
Описание: Добрая рождественская сказка, где любовь преодолевает все препятствия, добро торжествует, а зло наказано. Никита, успешный бизнесмен, желая найти девушку, которая полюбила бы его не за деньги, перевоплощается в бедного студента и дает объявление о знакомстве в газету.
Лиза, практикантка из милиции, по заданию начальника ищет странноватого маньяка, отрезающего девушкам косы. Одна ошибка в объявлении – и герои встречаются. Но Лиза видит в Никите того самого преступника, а он в таинственной незнакомке – девушку мечты. Далее следует серия блестящих недоразумений, а в результате герои не только остаются вместе, но и Лизе удается спасти бизнес Никиты, которым в отсутствие директора решили завладеть коварные партнеры.
Сэмпл: http://yadi.sk/d/PQLWAkySF8cwE
Качество видео: SATRip
Формат видео: AVI
Видео: XviD, 720x400, 25.00fps, 2077 Кбит/сек, 0.288 bit/pixel
Аудио: MP3, 48000 Hz, stereo, 192 Кбит/сек

MediaInfo

Общее
Полное имя : R:\Сериалы\Фильмы\Золотые ножницы.2013.XviD.SATRip.by.simka_1500 МБ.avi
Формат : AVI
Формат/Информация : Audio Video Interleave
Размер файла : 1,46 Гбайт
Продолжительность : 1 ч. 32 м.
Общий поток : 2278 Кбит/сек
Программа кодирования : VirtualDubMod 1.5.10.3 | www.virtualdub-fr.org || (build 2550/release)
Библиотека кодирования : VirtualDubMod build 2550/release
Видео
Идентификатор : 0
Формат : MPEG-4 Visual
Профиль формата : Advanced Simple@L5
Параметр BVOP формата : 1
Параметр QPel формата : Нет
Параметр GMC формата : Без точки перехода
Параметр матрицы формата : Default (H.263)
Идентификатор кодека : XVID
Идентификатор кодека/Подсказка : XviD
Продолжительность : 1 ч. 32 м.
Битрейт : 2077 Кбит/сек
Ширина : 720 пикселей
Высота : 400 пикселей
Соотношение сторон : 16:9
Частота кадров : 25,000 кадров/сек
Цветовое пространство : YUV
Субдискретизация насыщенности : 4:2:0
Битовая глубина : 8 бит
Тип развёртки : Прогрессивная
Метод сжатия : С потерями
Бит/(Пиксели*Кадры) : 0.288
Размер потока : 1,34 Гбайт (91%)
Библиотека кодирования : XviD 1.2.1 (UTC 2008-12-04)
Аудио
Идентификатор : 1
Формат : MPEG Audio
Версия формата : Version 1
Профиль формата : Layer 3
Режим : Joint stereo
Расширение режима : MS Stereo
Идентификатор кодека : 55
Идентификатор кодека/Подсказка : MP3
Продолжительность : 1 ч. 32 м.
Вид битрейта : Постоянный
Битрейт : 192 Кбит/сек
Каналы : 2 канала
Частота : 48,0 КГц
Метод сжатия : С потерями
Размер потока : 126 Мбайт (8%)
Выравнивание : Соединение по промежуткам
Продолжительность промежутка : 40 мс. (1,00 видеокадр)
Время предзагрузки промежутка : 504 мс.
Библиотека кодирования : LAME3.99r
Настройки программы : -m j -V 4 -q 2 -lowpass 18.6 -b 192

Скриншот c названием фильма

Скриншоты

Скачать

Скачать торрент!

Как скачивать? · Что такое торрент? · Рейтинг и ограничения

Сайт не распространяет и не хранит электронные версии произведений, а лишь предоставляет доступ к создаваемому пользователями каталогу ссылок на торрент-файлы, которые содержат только списки хеш-сумм

[Профиль] [ЛС]
Показать сообщения:    
Ответить на тему

Текущее время: Сегодня 22:35

Часовой пояс: GMT + 4



Вы не можете начинать темы
Вы не можете отвечать на сообщения
Вы не можете редактировать свои сообщения
Вы не можете удалять свои сообщения
Вы не можете голосовать в опросах
Вы не можете прикреплять файлы к сообщениям
Вы не можете скачивать файлы