Зажги этот мир / Зажечь мир / Beat the World (Роберт Эйдитай / Robert Adetuyi) [2011, Канада, танцы, драма, мелодрама, BDRemux 1080p] MVO (ТНТ) + DVO + Original (Eng) + Subs (Eng)

Ответить на тему
 
Автор Сообщение

user ®

Стаж: 7 лет 7 месяцев

Сообщений: 20008

Пост Пост: #1 от 28-Дек-2013 20:55

[Цитировать]

Зажги этот мир / Beat the World

-
-Страна: Канада
Студия: Inner City Films, Ontario Media Development Corporation (OMDC), Shotz Fiction Film
Жанр: танцы, драма, мелодрама
Год выпуска: 2011
Продолжительность: 01:31:28--Перевод 1: Профессиональный (многоголосый закадровый) ТНТ
Перевод 2: Любительский (двухголосый закадровый) Samurai 48 & Oэlun по переводу teresia-bum
Cубтитры: английские
Оригинальная аудиодорожка: английский--Режиссер: Роберт Эйдитай / Robert Adetuyi
В ролях: Тайрон Браун, Никки Грант, Майкл Морган, Рэй Джонсон, Кристи Флорес, Шейн Поллард, Кристофер Толер--Описание: У Юсона череда личных кризисов, которая может помешать ему и его танцевальному коллективу победить в мировом чемпионате в Детройте. Здесь собрались хип-хоп команды с разных концов США и всего света в надежде воплотить свои мечтания и обрести свой свет славы.--imdb | kinopoisk | Сэмпл--Тип релиза: BDRemux 1080p [Beat.the.World.2011.DUAL.COMPLETE.BLURAY-XORBiTANT]
Контейнер: MKV
Видео: MPEG-4 AVC / 17994 kbps / 1920x1080 / 23,976 fps / 16:9 / High Profile 4.1
Аудио 1: Russian AC3 / 2.0 / 48 kHz / 192 kbps / 16 bits |MVO, ТНТ|
Аудио 2: Russian DTS / 5.1 / 48 kHz / 1509 kbps / 24 bits |Samurai 48 & Oэlun|
Аудио 3: English DTS-HD Master Audio / 5.1 / 48 kHz / 4479 kbps / 24 bits (DTS Core: 5.1 / 48 kHz / 1509 kbps / 24 bits) |original|
Формат субтитров: softsub [SRT]

MediaInfo

Общее
Уникальный идентификатор                 : 226998778266878284792128308847477970733 (0xAAC65FDB52A14915B48850D22056D72D)
Полное имя                               : G:\HD\Зажги этот мир.2011.Blu-Ray.Remux.(1080p).mkv
Формат                                   : Matroska
Версия формата                           : Version 2
Размер файла                             : 15,4 Гбайт
Продолжительность                        : 1 ч. 31 м.
Режим общего битрейта                    : Переменный
Общий поток                              : 24,1 Мбит/сек
Дата кодирования                         : UTC 2013-12-27 17:15:58
Программа кодирования                    : mkvmerge v5.8.0 ('No Sleep / Pillow') built on Sep  2 2012 15:37:04
Библиотека кодирования                   : libebml v1.2.3 + libmatroska v1.3.0
Attachment                               : Yes
Видео
Идентификатор                            : 1
Формат                                   : AVC
Формат/Информация                        : Advanced Video Codec
Профиль формата                          : High@L4.1
Параметр CABAC формата                   : Да
Параметр ReFrames формата                : 4 кадра
Режим смешивания                         : Container profile=Unknown@0.0
Идентификатор кодека                     : V_MPEG4/ISO/AVC
Продолжительность                        : 1 ч. 31 м.
Вид битрейта                             : Переменный
Максимальный битрейт                     : 30,0 Мбит/сек
Ширина                                   : 1920 пикселей
Высота                                   : 1080 пикселей
Соотношение сторон                       : 16:9
Режим частоты кадров                     : Постоянный
Частота кадров                           : 23,976 кадра/сек
Цветовое пространство                    : YUV
Субдискретизация насыщенности            : 4:2:0
Битовая глубина                          : 8 бит
Тип развёртки                            : Прогрессивная
Default                                  : Да
Forced                                   : Нет
Основные цвета                           : BT.709
Характеристики трансфера                 : BT.709
Коэффициенты матрицы                     : BT.709
Аудио #1
Идентификатор                            : 2
Формат                                   : AC-3
Формат/Информация                        : Audio Coding 3
Расширение режима                        : CM (complete main)
Параметр Endianness формата              : Big
Идентификатор кодека                     : A_AC3
Продолжительность                        : 1 ч. 31 м.
Вид битрейта                             : Постоянный
Битрейт                                  : 192 Кбит/сек
Каналы                                   : 2 канала
Расположение каналов                     : Front: L R
Частота                                  : 48,0 КГц
Битовая глубина                          : 16 бит
Метод сжатия                             : С потерями
Размер потока                            : 126 Мбайт (1%)
Заголовок                                : MVO, ТНТ
Язык                                     : Russian
Default                                  : Да
Forced                                   : Нет
Аудио #2
Идентификатор                            : 3
Формат                                   : DTS
Формат/Информация                        : Digital Theater Systems
Режим                                    : 16
Параметр Endianness формата              : Big
Идентификатор кодека                     : A_DTS
Продолжительность                        : 1 ч. 31 м.
Вид битрейта                             : Постоянный
Битрейт                                  : 1510 Кбит/сек
Каналы                                   : 6 каналов
Расположение каналов                     : Front: L C R, Side: L R, LFE
Частота                                  : 48,0 КГц
Битовая глубина                          : 24 бит
Метод сжатия                             : С потерями
Размер потока                            : 988 Мбайт (6%)
Заголовок                                : DVO
Язык                                     : Russian
Default                                  : Нет
Forced                                   : Нет
Аудио #3
Идентификатор                            : 4
Формат                                   : DTS
Формат/Информация                        : Digital Theater Systems
Профиль формата                          : MA / Core
Режим                                    : 16
Параметр Endianness формата              : Big
Идентификатор кодека                     : A_DTS
Продолжительность                        : 1 ч. 31 м.
Вид битрейта                             : Переменный
Битрейт                                  : Неизвестно / 1509 Кбит/сек
Каналы                                   : 6 каналов
Расположение каналов                     : Front: L C R, Side: L R, LFE
Частота                                  : 48,0 КГц
Битовая глубина                          : 24 бит
Метод сжатия                             : Без потерь / Lossy
Язык                                     : English
Default                                  : Нет
Forced                                   : Нет
Текст
Идентификатор                            : 5
Формат                                   : UTF-8
Идентификатор кодека                     : S_TEXT/UTF8
Идентификатор кодека/Информация          : UTF-8 Plain Text
Язык                                     : English
Default                                  : Нет
Forced                                   : Нет
Меню
00:00:00.000                             : :Chapter 01
00:10:35.301                             : :Chapter 02
00:20:25.057                             : :Chapter 03
00:31:54.495                             : :Chapter 04
00:41:58.349                             : :Chapter 05
00:52:44.661                             : :Chapter 06
01:02:56.814                             : :Chapter 07
01:13:02.961                             : :Chapter 08
01:22:33.531                             : :Chapter 09

Скриншоты


Скачать

Скачать торрент!

Как скачивать? · Что такое торрент? · Рейтинг и ограничения

Сайт не распространяет и не хранит электронные версии произведений, а лишь предоставляет доступ к создаваемому пользователями каталогу ссылок на торрент-файлы, которые содержат только списки хеш-сумм

[Профиль] [ЛС]
Показать сообщения:    
Ответить на тему

Текущее время: Сегодня 10:50

Часовой пояс: GMT + 4



Вы не можете начинать темы
Вы не можете отвечать на сообщения
Вы не можете редактировать свои сообщения
Вы не можете удалять свои сообщения
Вы не можете голосовать в опросах
Вы не можете прикреплять файлы к сообщениям
Вы не можете скачивать файлы