Индюки: Назад в будущее / Free Birds (Джимми Хейуорд / Jimmy Hayward) [2013, мультфильм, комедия, приключения, семейный, BDRip] Dub

Ответить на тему
 
Автор Сообщение

user ®

Стаж: 13 лет

Сообщений: 15041

Пост Пост: #1 от 26-Дек-2013 11:15

[Цитировать]

Индюки: Назад в будущее / Free Birds
«Величайшее путешествие всех времён»
Страна: США
Жанр: мультфильм, комедия, приключения, семейный
Продолжительность: 01:31:02
Год выпуска: 2013
Перевод: Профессиональный (дублированный)
Русские субтитры: нет
Режиссёр: Джимми Хейуорд / Jimmy Hayward--Роли озвучивали: Оуэн Уилсон, Вуди Харрельсон, Эми Полер, Джордж Такей, Колм Мини, Кит Дэвид, Дэн Фоглер, Джимми Хейуорд, Кейтлин Мехер, Карлос Аласраки, Джефф Бьянкалана, Дэнни Кэри, Карлос Понсе, Роберт Белтран, Лесли Никол, Скотт Можер...-Роли дублировали: Денис Колесников, Ян Розенберг, Светлана Молодцова, Василиса Эльдарова, Даниил Эльдаров--Описание: Индюк Реджи вырос на обычной ферме, его жизнь была скучной и однообразной, как и у других птиц. Однако он отличался от сородичей тем, что умел пользоваться смекалкой и понимал, зачем его кормят. Поедание индейки на День Благодарения — знаменитая американская традиция, которая определяет смысл существования всех индюков на этой ферме. Однажды у Реджи появилась возможность кардинально изменить ситуацию: вместе с безумным приятелем Джейком они отправляются в необычное путешествие на машине времени. Основная задача — вернуться во времена, когда зарождалась традиция приготовления индейки на праздник, и изменить ход истории.--Качество: BDRip Исходник BDRemux 1080p
Формат: AVI
Видео: 656x352 (1.86:1), 23.976 fps, XviD build 73 ~1008 kbps avg, 0.18 bit/pixel
Аудио: 48 kHz, MPEG Layer 3, 2 ch, ~128.00 kbps avg
Субтитры: отсутствуют

Подробные технические данные

GeneralComplete name : Индюки. Назад в будущее,2013.aviFormat : AVIFormat/Info : Audio Video InterleaveFile size : 746 MiBDuration : 1h 31mnOverall bit rate : 1 146 KbpsWriting application : VirtualDubMod 1.5.10.3 | www.virtualdub-fr.org || (build 2550/release)Writing library : VirtualDubMod build 2550/release
VideoID : 0Format : MPEG-4 VisualFormat profile : Advanced Simple@L5Format settings, BVOP : 1Format settings, QPel : NoFormat settings, GMC : No warppointsFormat settings, Matrix : CustomCodec ID : XVIDCodec ID/Hint : XviDDuration : 1h 31mnBit rate : 1 009 KbpsWidth : 656 pixelsHeight : 352 pixelsDisplay aspect ratio : 1.85:1Frame rate : 23.976 fpsColor space : YUVChroma subsampling : 4:2:0Bit depth : 8 bitsScan type : ProgressiveCompression mode : LossyBits/(Pixel*Frame) : 0.182Stream size : 657 MiB (88%)Writing library : XviD 73
AudioID : 1Format : MPEG AudioFormat version : Version 1Format profile : Layer 3Codec ID : 55Codec ID/Hint : MP3Duration : 1h 31mnBit rate mode : ConstantBit rate : 128 KbpsChannel count : 2 channelsSampling rate : 48.0 KHzCompression mode : LossyStream size : 83.3 MiB (11%)Alignment : Aligned on interleavesInterleave, duration : 42 ms (1.00 video frame)Interleave, preload duration : 504 msWriting library : LAME3.99rEncoding settings : -m s -V 4 -q 2 -lowpass 17 -b 128

Скриншоты

Скачать

Скачать торрент! Индюки: Назад в будущее / Free Birds (Джимми Хейуорд / Jimmy Hayward) [2013, мультфильм, комедия, приключения, семейный, BDRip] Dub

Как скачивать? · Что такое торрент? · Рейтинг и ограничения

Сайт не распространяет и не хранит электронные версии произведений, а лишь предоставляет доступ к создаваемому пользователями каталогу ссылок на торрент-файлы, которые содержат только списки хеш-сумм

[Профиль] [ЛС]
Показать сообщения:    
Ответить на тему

Текущее время: Сегодня 19:25

Часовой пояс: GMT + 4



Вы не можете начинать темы
Вы не можете отвечать на сообщения
Вы не можете редактировать свои сообщения
Вы не можете удалять свои сообщения
Вы не можете голосовать в опросах
Вы не можете прикреплять файлы к сообщениям
Вы не можете скачивать файлы