Семейка Крудс / The Croods (Кирк де Микко / Крис Сандерс) [2013, комедия, приключения, семейный, HDRip] AVO Сербин

Ответить на тему
 
Автор Сообщение

user ®

Стаж: 13 лет

Сообщений: 15041

Пост Пост: #1 от 24-Дек-2013 23:20

[Цитировать]

Семейка Крудс / The Croods
Страна: США
Жанр: комедия, приключения, семейный
Продолжительность: 01:38:36
Год выпуска: 2013
Перевод: Авторский (одноголосый закадровый) Юрий Сербин
Русские субтитры: нет
Режиссёр: Кирк де Микко / Крис Сандерс
Роли озвучивали: Николас Кейдж, Эмма Стоун, Райан Рейнольдс, Кэтрин Кинер, Клорис Личмен, Кларк Дьюк, Крис Сандерс...
Описание: Землетрясение уничтожило дом доисторической семьи, и теперь Крудсам придётся искать другое пристанище. А вокруг новый и опасный мир! Им на помощь приходит молодой кочевник Малой, передовые взгляды которого наталкиваются на консервативность главы семьи Груга. Но только вместе они смогут выжить и достичь своей цели...
Доп. информация: Перевод Юрия Сербина осуществлен в октябре 2013 г. силами форумов E180 и WIDESCREEN "Кино в Авторском переводе" по заказу: phaeton77, Nick, Multmir, denis_mgn_1987, furria62, foxlight, xerman13, ultrajeka, Кирыч, пуля, tide, safreks, Guyver, dark1982, maximus10-99, pestel, Nadoelo, markinscor, DFCbit, ilbilb, Slimka, Ramis, oleg-k, dr_akula, Savely, xfiles, luka69, DB73, Bilko, olegsoleg, lankano, ANISKIN50, carnivale, dir, 2vova2.
Семпл: http://multi-up.com/934738
Качество: HDRip
Формат: AVI
Видео: 720x304 (2.35:1), 23.976 fps, XviD, ~1658 kbps avg, 0.316 bit/pixel
Аудио: 48 kHz, AC3 Dolby Digital, 3/2 (L,C,R,l,r) LFE ch, ~448.00 kbps avg [AVO Ю. Сербин]
Субтитры: отсутствуют

Подробные технические данные

GeneralComplete name : F:\Семейка Крудс (The Croods) HDRip AVO Сербин.aviFormat : AVIFormat/Info : Audio Video InterleaveFile size : 1.46 GiBDuration : 1h 38mnOverall bit rate : 2 115 KbpsMovie name : Semejka.Kruds.2013.HDRip.1400MBWriting application : VirtualDubMod 1.5.10.3 | www.virtualdub-fr.org || (build 2550/release)
VideoID : 0Format : MPEG-4 VisualFormat profile : Advanced Simple@L5Format settings, BVOP : 2Format settings, QPel : NoFormat settings, GMC : No warppointsFormat settings, Matrix : Default (MPEG)Codec ID : XVIDCodec ID/Hint : XviDDuration : 1h 38mnBit rate : 1 658 KbpsWidth : 720 pixelsHeight : 304 pixelsDisplay aspect ratio : 2.35:1Frame rate : 23.976 fpsColor space : YUVChroma subsampling : 4:2:0Bit depth : 8 bitsScan type : ProgressiveCompression mode : LossyBits/(Pixel*Frame) : 0.316Stream size : 1.14 GiB (78%)Writing library : XviD 1.2.1 (UTC 2008-12-04)
AudioID : 1Format : AC-3Format/Info : Audio Coding 3Mode extension : CM (complete main)Format settings, Endianness : BigCodec ID : 2000Duration : 1h 38mnBit rate mode : ConstantBit rate : 448 KbpsChannel(s) : 2 channelsChannel positions : Front: L RSampling rate : 48.0 KHzBit depth : 16 bitsCompression mode : LossyStream size : 316 MiB (21%)Alignment : Split accross interleavesInterleave, duration : 42 ms (1.00 video frame)Interleave, preload duration : 500 ms

Скриншоты




Скачать

Скачать торрент! Семейка Крудс / The Croods (Кирк де Микко / Крис Сандерс) [2013, комедия, приключения, семейный, HDRip] AVO Сербин

Как скачивать? · Что такое торрент? · Рейтинг и ограничения

Сайт не распространяет и не хранит электронные версии произведений, а лишь предоставляет доступ к создаваемому пользователями каталогу ссылок на торрент-файлы, которые содержат только списки хеш-сумм

[Профиль] [ЛС]
Показать сообщения:    
Ответить на тему

Текущее время: Сегодня 02:58

Часовой пояс: GMT + 4



Вы не можете начинать темы
Вы не можете отвечать на сообщения
Вы не можете редактировать свои сообщения
Вы не можете удалять свои сообщения
Вы не можете голосовать в опросах
Вы не можете прикреплять файлы к сообщениям
Вы не можете скачивать файлы