Материнская клятва / Kasam Paida Karne Wale Ki (Баббар Субхаш / Babbar Subhash) [1984, Индия, боевик, DVDRip] MVO (Домашний)+ Original

Ответить на тему
 
Автор Сообщение

user ®

Стаж: 12 лет

Сообщений: 15092

Пост Пост: #1 от 23-Дек-2013 02:50

[Цитировать]

Материнская клятва / Kasam Paida Karne Wale Ki
Страна: Индия
Жанр: боевик
Год выпуска: 1984
Продолжительность: 02:19:09
Перевод: Профессиональный (многоголосый закадровый) студия "Элегия-фильм"
Cубтитры: нет
Оригинальная аудиодорожка: хинди
Режиссер: Баббар Субхаш / Babbar Subhash
В ролях: Митхун Чакраборти, Смита Патиль, Салма Ага, Амриш Пури
Описание: Негодяй Удай превратил жизнь своего племянника Сатиша в кошмар, но этого ему было мало. Желая прибрать к рукам богатство юноши, Удай решается на преступление. Организовав покушение на жизнь Сатиша, он выдает его за самоубийство. Молодая жена Сатиша Арти становится вдовой и единственным утешением ее жизни становится сын Авинаш. Аарти клянется отомстить убийце и жажда мести дает ей силы жить и воспитывать сына. Она верит, что только руками Авинаша может свершиться правосудие.
Доп. информация: Рип скачан с сети. Русская дорожка с VHS заменена на свою, с канала Домашний. Оригинальная дорожка 5.1 448kbps дутая, сжата до 2.0 224kbps.
Качество видео: DVDRip
Формат видео: AVI
Видео: MPEG4, XviD, 544x416 (4/3), 29.970 fps, 1 655 Kbps (0.244 bit/pixel)
Аудио 1: AC-3, 48.0 KHz, 2 ch, 224 Kbps, CBR - русский
Аудио 2: AC-3, 48.0 KHz, 2 ch, 224 Kbps, CBR - хинди

MediaInfo

Общее
Полное имя : K:\Материнская клятва.avi
Формат : AVI
Формат/Информация : Audio Video Interleave
Профиль формата : OpenDML
Размер файла : 2,07 Гбайт
Продолжительность : 2 ч. 19 м.
Общий поток : 2126 Кбит/сек
Название фильма : Материнская клятва / Kasam Paida Karne Wale Ki (1984)
Программа кодирования : VirtualDubMod 1.5.10.2 (build 2540/release)
Библиотека кодирования : VirtualDubMod build 2540/release
Видео
Идентификатор : 0
Формат : MPEG-4 Visual
Профиль формата : Advanced Simple@L5
Параметр BVOP формата : 1
Параметр QPel формата : Нет
Параметр GMC формата : Без точки перехода
Параметр матрицы формата : Выборочная
Идентификатор кодека : XVID
Идентификатор кодека/Подсказка : XviD
Продолжительность : 2 ч. 19 м.
Битрейт : 1655 Кбит/сек
Ширина : 544 пикселя
Высота : 416 пикселей
Соотношение сторон : 4:3
Частота кадров : 29,970 кадров/сек
Цветовое пространство : YUV
Субдискретизация насыщенности : 4:2:0
Битовая глубина : 8 бит
Тип развёртки : Прогрессивная
Метод сжатия : С потерями
Бит/(Пиксели*Кадры) : 0.244
Размер потока : 1,61 Гбайт (78%)
Библиотека кодирования : XviD 1.1.2 (UTC 2006-11-01)
Аудио #1
Идентификатор : 1
Формат : AC-3
Формат/Информация : Audio Coding 3
Расширение режима : CM (complete main)
Параметр Endianness формата : Big
Идентификатор кодека : 2000
Продолжительность : 2 ч. 19 м.
Вид битрейта : Постоянный
Битрейт : 224 Кбит/сек
Каналы : 2 канала
Расположение каналов : Front: L R
Частота : 48,0 КГц
Битовая глубина : 16 бит
Метод сжатия : С потерями
Размер потока : 223 Мбайт (11%)
Выравнивание : Разделение по промежуткам
Продолжительность промежутка : 33 мс. (1,00 видеокадр)
Время предзагрузки промежутка : 500 мс.
Заголовок : Профессиональный (многоголосый закадровый) Домашний
Аудио #2
Идентификатор : 2
Формат : AC-3
Формат/Информация : Audio Coding 3
Расширение режима : CM (complete main)
Параметр Endianness формата : Big
Идентификатор кодека : 2000
Продолжительность : 2 ч. 19 м.
Вид битрейта : Постоянный
Битрейт : 224 Кбит/сек
Каналы : 2 канала
Расположение каналов : Front: L R
Частота : 48,0 КГц
Битовая глубина : 16 бит
Метод сжатия : С потерями
Размер потока : 223 Мбайт (11%)
Выравнивание : Разделение по промежуткам
Продолжительность промежутка : 33 мс. (1,00 видеокадр)
Время предзагрузки промежутка : 500 мс.
Заголовок : Хинди

Скриншоты


Скачать

Скачать торрент! Материнская клятва / Kasam Paida Karne Wale Ki (Баббар Субхаш / Babbar Subhash) [1984, Индия, боевик, DVDRip] MVO (Домашний)+ Original

Как скачивать? · Что такое торрент? · Рейтинг и ограничения

Сайт не распространяет и не хранит электронные версии произведений, а лишь предоставляет доступ к создаваемому пользователями каталогу ссылок на торрент-файлы, которые содержат только списки хеш-сумм

[Профиль] [ЛС]
Показать сообщения:    
Ответить на тему

Текущее время: Сегодня 02:30

Часовой пояс: GMT + 4



Вы не можете начинать темы
Вы не можете отвечать на сообщения
Вы не можете редактировать свои сообщения
Вы не можете удалять свои сообщения
Вы не можете голосовать в опросах
Вы не можете прикреплять файлы к сообщениям
Вы не можете скачивать файлы