Ты будешь моей (Анатолий Матешко) [2013, Мелодрама, SATRip]

Ответить на тему
 
Автор Сообщение

user ®

Стаж: 7 лет 7 месяцев

Сообщений: 20008

Пост Пост: #1 от 23-Дек-2013 02:50

[Цитировать]

Ты будешь моей
Жанр: Мелодрама
Год выпуска: 2013
Продолжительность: 01:28:00
Режиссёр: Анатолий Матешко
В ролях: Наталья Николаева (II), Тимофей Каратаев, Кирилл Запорожский, Татьяна Зеленская, Роман Лях (II)
Описание: Если ты молода и красива, если ты вызываешь восхищение мужчин и зависть женщин, если за тобой ухаживают два самых красивых парня в институте, легко поддаться иллюзии, что этот мир создан для твоего счастья.
Но рано или поздно приходится делать выбор. Что важнее - яркие жесты или тихая преданность? Сила или заботливость? Настойчивость или умение прощать?
Дине приходится жестоко расплачиваться за свой неправильный выбор. И не только ей, а и ее маленькой дочке. Как будто, совершив ошибку, она шагнула в мир за кривое зеркало. Где золото обратилось в осколки стекла, мужество обернулось жестокостью. В мир, где любовь приносит не счастье, а ревность. Где дружба оборачивается предательством. И даже понимание, что ты сама во всем виновата, не спасает от страха и отчаянья.Но там, за стеклом, в неискаженном мире, остался человек, готовый протянуть руку...
Сэмпл: http://multi-up.com/934617
Качество видео: SATRip
Формат видео: AVI
Видео: XviD, 640x336, 25.00fps, 981 Кбит/сек, 0.182 bit/pixel
Аудио: MP3, 48000 Hz, stereo, 192 Кбит/сек

MediaInfo

Общее
Полное имя : R:\Сериалы\Фильмы\Ты будешь моей.2013.XviD.SATRip.by.simka_746 МБ.avi
Формат : AVI
Формат/Информация : Audio Video Interleave
Размер файла : 748 Мбайт
Продолжительность : 1 ч. 28 м.
Общий поток : 1182 Кбит/сек
Программа кодирования : VirtualDubMod 1.5.10.3 | www.virtualdub-fr.org || (build 2550/release)
Библиотека кодирования : VirtualDubMod build 2550/release
Видео
Идентификатор : 0
Формат : MPEG-4 Visual
Профиль формата : Advanced Simple@L5
Параметр BVOP формата : 1
Параметр QPel формата : Нет
Параметр GMC формата : Без точки перехода
Параметр матрицы формата : Default (H.263)
Идентификатор кодека : XVID
Идентификатор кодека/Подсказка : XviD
Продолжительность : 1 ч. 28 м.
Битрейт : 981 Кбит/сек
Ширина : 640 пикселей
Высота : 336 пикселей
Соотношение сторон : 1,905
Частота кадров : 25,000 кадров/сек
Цветовое пространство : YUV
Субдискретизация насыщенности : 4:2:0
Битовая глубина : 8 бит
Тип развёртки : Прогрессивная
Метод сжатия : С потерями
Бит/(Пиксели*Кадры) : 0.182
Размер потока : 620 Мбайт (83%)
Библиотека кодирования : XviD 1.2.1 (UTC 2008-12-04)
Аудио
Идентификатор : 1
Формат : MPEG Audio
Версия формата : Version 1
Профиль формата : Layer 3
Режим : Joint stereo
Расширение режима : MS Stereo
Идентификатор кодека : 55
Идентификатор кодека/Подсказка : MP3
Продолжительность : 1 ч. 28 м.
Вид битрейта : Постоянный
Битрейт : 192 Кбит/сек
Каналы : 2 канала
Частота : 48,0 КГц
Метод сжатия : С потерями
Размер потока : 121 Мбайт (16%)
Выравнивание : Соединение по промежуткам
Продолжительность промежутка : 40 мс. (1,00 видеокадр)
Время предзагрузки промежутка : 504 мс.
Библиотека кодирования : LAME3.99r
Настройки программы : -m j -V 4 -q 2 -lowpass 18.6 -b 192

Скриншот c названием фильма

Скриншоты

Релиз группы::
Скачать

Скачать торрент!

Как скачивать? · Что такое торрент? · Рейтинг и ограничения

Сайт не распространяет и не хранит электронные версии произведений, а лишь предоставляет доступ к создаваемому пользователями каталогу ссылок на торрент-файлы, которые содержат только списки хеш-сумм

[Профиль] [ЛС]
Показать сообщения:    
Ответить на тему

Текущее время: Сегодня 20:36

Часовой пояс: GMT + 4



Вы не можете начинать темы
Вы не можете отвечать на сообщения
Вы не можете редактировать свои сообщения
Вы не можете удалять свои сообщения
Вы не можете голосовать в опросах
Вы не можете прикреплять файлы к сообщениям
Вы не можете скачивать файлы