Темный мир (Антон Мегердичев) [2010, Россия, фэнтези, триллер, HDRip]

Ответить на тему
 
Автор Сообщение

user ®

Стаж: 7 лет 7 месяцев

Сообщений: 20008

Пост Пост: #1 от 22-Дек-2013 14:20

[Цитировать]

Темный мир«Будет сложно остаться собой»- Страна: Россия
Жанр: фэнтези, триллер
Год выпуска: 2010
Продолжительность: 01:45:24-Режиссер: Антон Мегердичев
В ролях: Светлана Иванова, Иван Жидков, Елена Панова, Сергей Угрюмов, Владимир Носик, Илья Алексеев, Мария Кожевникова, Ксения Радченко, Захар Хунгуреев, Татьяна Кузнецова, Денис Юшечкин, Елена Лабутина-Описание: Группа студентов отправляется в экспедицию по глухим северным деревням. В одной из них главная героиня - девушка, увлеченная мистикой и романтикой загробного мира - находит древний могильник, а в нем - магический щит. Дотронувшись до щита, она пробуждает гнев духов прошлого и приобретает сверхчеловеческие способности. Теперь студентам придется вступить в противостояние с силами зла.-
-

Доп. Информация

Сценарий: Алексей Сидоров, Александр Дорбинян
Продюсер: Рубен Дишдишян, Алексей Сидоров, Юрий Мороз, Сергей Даниелян, Арам Мовсесян
Оператор: Антон Антонов
Композитор: ХарДрам, Сергей Абрамов, Дмитрий Сухачев
Маркетинг: $3 000 000
Сборы в России: $8 347 426
Мировая премьера: 7 октября 2010
Релиз на DVD: 18 ноября 2010, «Флагман-Трейд», «CD Land»
Релиз на Blu-ray: 17 февраля 2011,
«Флагман-Трейд», «CD Land»
-Качество: HDRip
Контейнер: AVI
Видео: XviD, 720x400 (16:9), 1575 kbps, 23,976 fps, 0,228 bpp
Аудио: AC3 / 5.1 / 48 kHz / 384 kbps / 16 bit-

Media Info

General
Complete name : G:\Temny.Mir.2010_HDRip.avi
Format : AVI
Format/Info : Audio Video Interleave
File size : 1.45 GiB
Duration : 1h 45mn
Overall bit rate : 1 969 Kbps
Writing application : VirtualDubMod 1.5.10.2 (build 2540/release)
Writing library : VirtualDubMod build 2540/release
Video
ID : 0
Format : MPEG-4 Visual
Format profile : Advanced Simple@L5
Format settings, BVOP : 1
Format settings, QPel : No
Format settings, GMC : No warppoints
Format settings, Matrix : Default (MPEG)
Codec ID : XVID
Codec ID/Hint : XviD
Duration : 1h 45mn
Bit rate : 1 576 Kbps
Width : 720 pixels
Height : 400 pixels
Display aspect ratio : 16:9
Frame rate : 23.976 fps
Color space : YUV
Chroma subsampling : 4:2:0
Bit depth : 8 bits
Scan type : Progressive
Compression mode : Lossy
Bits/(Pixel*Frame) : 0.228
Stream size : 1.16 GiB (80%)
Writing library : XviD 1.2.1 (UTC 2008-12-04)
Audio
ID : 1
Format : AC-3
Format/Info : Audio Coding 3
Mode extension : CM (complete main)
Codec ID : 2000
Duration : 1h 45mn
Bit rate mode : Constant
Bit rate : 384 Kbps
Channel(s) : 6 channels
Channel positions : Front: L C R, Side: L R, LFE
Sampling rate : 48.0 KHz
Bit depth : 16 bits
Compression mode : Lossy
Stream size : 290 MiB (20%)
Alignment : Aligned on interleaves
Interleave, duration : 42 ms (1.00 video frame)
Interleave, preload duration : 512 ms

Скриншот с названием фильма

Скриншоты

Скачать

Скачать торрент!

Как скачивать? · Что такое торрент? · Рейтинг и ограничения

Сайт не распространяет и не хранит электронные версии произведений, а лишь предоставляет доступ к создаваемому пользователями каталогу ссылок на торрент-файлы, которые содержат только списки хеш-сумм

[Профиль] [ЛС]
Показать сообщения:    
Ответить на тему

Текущее время: Сегодня 18:10

Часовой пояс: GMT + 4



Вы не можете начинать темы
Вы не можете отвечать на сообщения
Вы не можете редактировать свои сообщения
Вы не можете удалять свои сообщения
Вы не можете голосовать в опросах
Вы не можете прикреплять файлы к сообщениям
Вы не можете скачивать файлы