Услышь меня / Ting Shuo / Hear Me (Фэньфэнь Чэн / Fenfen Cheng) [2009, Тайвань, мелодрама, комедия, BDRip-AVC] AVO (Юрий Сербин) + Sub Rus

Ответить на тему
 
Автор Сообщение

user ®

Стаж: 11 лет

Сообщений: 15151

Пост Пост: #1 от 21-Дек-2013 20:55

[Цитировать]

Услышь меня / Ting Shuo / Hear Me
Страна: Тайвань
Жанр: мелодрама, комедия
Год выпуска: 2009
Продолжительность: 1:49:27
Перевод: Авторский (одноголосый закадровый) Юрий Сербин
Cубтитры: русские, английские (в составе контейнера)
Режиссер: Фэньфэнь Чэн / Fenfen Cheng
В ролях: Эдди Пэн, Иви Чэнь, Мишель Чэнь, Линь Мэй Сю, Ло Бэй Ань
Описание: Тянь Ко подрабатывает разносчиком обедов в ресторанчике своих родителей. В один прекрасный день он доставляет еду в бассейн для команды по плаванью с нарушением слуха. Там он встречает двух сестричек, одна из которых его явно заинтересовывает. По счастливой случайности Тянь Ко изучал язык жестов в колледже, поэтому пообщаться с девушками ему труда не составило.
Между парнишкой и девчушкой с забавным именем Ян Ян завязываются отношения… Но Ян Ян начинает понимать, что отдаляется от своей сестры, и решает больше не видеться с Тянь Ко. Но парень-то безнадёжно влюбился. Завоюет ли он сердце Ян Ян, или проблема нарушения слуха станет непреодолимым препятствием для них?..
Доп. информация: Фильм посвящён XXI-ым летним Дефлимпийским играм, проходившим в Тайпее.
Дефлимпийские игры — спортивные соревнования людей с нарушениями слуха.
Сэмпл: http://multi-up.com/934427
Качество видео: BDRip-AVC
Исходник: BDRip 720p
Формат видео: MKV
Видео: AVC, 960x544, 16:9, 23,976 кадра/сек, 1450 Кбит/сек
Аудио: AC-3, 48,0 КГц, 448 Кбит/сек, 6 каналов

MediaInfo

Формат : Matroska
Версия формата : Version 4 / Version 2
Размер файла : 1,45 Гбайт
Продолжительность : 1 ч. 49 м.
Общий поток : 1899 Кбит/сек
Название фильма : Услышь меня / Hear Me / Ting shuo (2009) DRip-AVC rip by Rulya74
Дата кодирования : UTC 2013-05-07 05:49:52
Программа кодирования : mkvmerge v6.2.0 ('Promised Land') built on Apr 28 2013 12:22:01
Библиотека кодирования : libebml v1.3.0 + libmatroska v1.4.0
Видео
Идентификатор : 1
Формат : AVC
Формат/Информация : Advanced Video Codec
Профиль формата : Main@L4.1
Параметр CABAC формата : Да
Параметр ReFrames формата : 10 кадров
Идентификатор кодека : V_MPEG4/ISO/AVC
Продолжительность : 1 ч. 49 м.
Битрейт : 1450 Кбит/сек
Ширина : 960 пикселей
Высота : 544 пикселя
Соотношение сторон : 16:9
Режим частоты кадров : Постоянный
Частота кадров : 23,976 кадра/сек
Цветовое пространство : YUV
Субдискретизация насыщенности : 4:2:0
Битовая глубина : 8 бит
Тип развёртки : Прогрессивная
Бит/(Пиксели*Кадры) : 0.116
Размер потока : 1,08 Гбайт (74%)
Библиотека кодирования : x264 core 130 r2273 b3065e6
Настройки программы : cabac=1 / ref=10 / deblock=1:-2:-1 / analyse=0x1:0x111 / me=umh / subme=9 / psy=1 / psy_rd=1.10:0.20 / mixed_ref=1 / me_range=32 / chroma_me=1 / trellis=0 / 8x8dct=0 / cqm=0 / deadzone=21,11 / fast_pskip=0 / chroma_qp_offset=-2 / threads=3 / lookahead_threads=8 / sliced_threads=0 / nr=0 / decimate=0 / interlaced=0 / bluray_compat=0 / constrained_intra=0 / bframes=8 / b_pyramid=2 / b_adapt=0 / b_bias=0 / direct=0 / weightb=0 / open_gop=0 / weightp=0 / keyint=250 / keyint_min=23 / scenecut=40 / intra_refresh=0 / rc_lookahead=60 / rc=2pass / mbtree=1 / bitrate=1450 / ratetol=1.0 / qcomp=0.60 / qpmin=0 / qpmax=69 / qpstep=4 / cplxblur=20.0 / qblur=0.5 / vbv_maxrate=10000 / vbv_bufsize=10000 / nal_hrd=none / ip_ratio=1.40 / aq=1:1.00
Default : Да
Forced : Нет
Аудио
Идентификатор : 2
Формат : AC-3
Формат/Информация : Audio Coding 3
Расширение режима : CM (complete main)
Параметр Endianness формата : Big
Идентификатор кодека : A_AC3
Продолжительность : 1 ч. 49 м.
Вид битрейта : Постоянный
Битрейт : 448 Кбит/сек
Каналы : 6 каналов
Расположение каналов : Front: L C R, Side: L R, LFE
Частота : 48,0 КГц
Битовая глубина : 16 бит
Метод сжатия : С потерями
Размер потока : 351 Мбайт (24%)
Заголовок : Авторский (Ю. Сербин)
Язык : Russian
Default : Да
Forced : Нет
Текст #1
Идентификатор : 3
Формат : UTF-8
Идентификатор кодека : S_TEXT/UTF8
Идентификатор кодека/Информация : UTF-8 Plain Text
Язык : Russian
Default : Да
Forced : Нет
Текст #2
Идентификатор : 4
Формат : UTF-8
Идентификатор кодека : S_TEXT/UTF8
Идентификатор кодека/Информация : UTF-8 Plain Text
Язык : English
Default : Нет
Forced : Нет

Скриншот c названием фильма

Скачать

Скачать торрент! Услышь меня / Ting Shuo / Hear Me (Фэньфэнь Чэн / Fenfen Cheng) [2009, Тайвань, мелодрама, комедия, BDRip-AVC] AVO (Юрий Сербин) + Sub Rus

Как скачивать? · Что такое торрент? · Рейтинг и ограничения

Сайт не распространяет и не хранит электронные версии произведений, а лишь предоставляет доступ к создаваемому пользователями каталогу ссылок на торрент-файлы, которые содержат только списки хеш-сумм

[Профиль] [ЛС]
Показать сообщения:    
Ответить на тему

Текущее время: Сегодня 19:25

Часовой пояс: GMT + 4



Вы не можете начинать темы
Вы не можете отвечать на сообщения
Вы не можете редактировать свои сообщения
Вы не можете удалять свои сообщения
Вы не можете голосовать в опросах
Вы не можете прикреплять файлы к сообщениям
Вы не можете скачивать файлы