Кэролайн и Джеки / Каролина и Джеки / Caroline and Jackie (Адам Кристиан Кларк / Adam Christian Clark) [2012, США, Драма, WEB-DL 720p] [UNRATED] Sub Rus, Eng + Original Eng

Ответить на тему
 
Автор Сообщение

user ®

Стаж: 7 лет 7 месяцев

Сообщений: 20008

Пост Пост: #1 от 21-Дек-2013 01:10

[Цитировать]

Кэролайн и Джеки / Каролина и Джеки / Caroline and Jackie
Страна: США
Жанр: Драма
Год выпуска: 2012
Продолжительность: 1:25:00
Перевод: Субтитры (VitalD (Vitally_D))
Cубтитры: русские, английские
Оригинальная аудиодорожка: английский
Режиссер: Адам Кристиан Кларк / Adam Christian Clark
В ролях: Маргерит Моро
Битси Таллоч
Дэвид Джунтоли
Валери Эзлинн
Джейсон Грей-Стенфорд
Дэвид Фьюит
Тони Альфьери
Кэтлин Асселин
Шарлотта Брэнэм-Кэмп
Флэннери Брэнэм-Кэмп
Описание: На праздничную вечеринку в честь дня рождения Кэролайн приезжает ее сестра, Джеки, вместе со своим бойфрендом. Но то, что начиналось как интересный вечер с близкими друзьями, быстро перетекает в нервное выяснение отношений между сестрами…
Качество видео: WEB-DL 720p
Формат видео: MKV
Видео: AVC, 1280x692, 1.85:1, 23.976 fps, 3912 kbps
Аудио: AC-3, 48.0 Khz, 384 kbps, 6 ch
Формат субтитров: softsub (SRT)
Доп. информация о субтитрах: (встроенные)

MediaInfo

General
Unique ID : 216630627221336027935768482519332180725 (0xA2F98A8B03C353BE611D721CCE0052F5)
Complete name : /media/hd500/MyRealeses/Caroline and Jackie (2012)/Caroline.and.Jackie.2012.UNRATED.720p.WEB-DL.mkv
Format : Matroska
Format version : Version 2
File size : 2.61 GiB
Duration : 1h 25mn
Overall bit rate : 4 384 Kbps
Movie name : Caroline and Jackie (2012)
Encoded date : UTC 2013-12-20 17:31:31
Writing application : mkvmerge v5.1.0 ('And so it goes') built on Jul 3 2012 05:32:33
Writing library : libebml v1.2.2 + libmatroska v1.3.0
Video
ID : 1
Format : AVC
Format/Info : Advanced Video Codec
Format profile : High@L3.1
Format settings, CABAC : No
Format settings, ReFrames : 2 frames
Codec ID : V_MPEG4/ISO/AVC
Duration : 1h 25mn
Bit rate : 3 913 Kbps
Width : 1 280 pixels
Height : 692 pixels
Display aspect ratio : 1.85:1
Frame rate mode : Constant
Frame rate : 23.976 fps
Color space : YUV
Chroma subsampling : 4:2:0
Bit depth : 8 bits
Scan type : Progressive
Bits/(Pixel*Frame) : 0.184
Stream size : 2.33 GiB (89%)
Title : Caroline and Jackie (2012)
Language : English
Default : Yes
Forced : No
Color primaries : BT.709
Transfer characteristics : BT.709
Matrix coefficients : BT.709
Audio
ID : 2
Format : AC-3
Format/Info : Audio Coding 3
Mode extension : CM (complete main)
Format settings, Endianness : Big
Codec ID : A_AC3
Duration : 1h 25mn
Bit rate mode : Constant
Bit rate : 384 Kbps
Channel(s) : 6 channels
Channel positions : Front: L C R, Side: L R, LFE
Sampling rate : 48.0 KHz
Bit depth : 16 bits
Compression mode : Lossy
Stream size : 234 MiB (9%)
Language : English
Default : Yes
Forced : No
Text #1
ID : 3
Format : UTF-8
Codec ID : S_TEXT/UTF8
Codec ID/Info : UTF-8 Plain Text
Title : английский (оригинал)
Language : English
Default : No
Forced : No
Text #2
ID : 4
Format : UTF-8
Codec ID : S_TEXT/UTF8
Codec ID/Info : UTF-8 Plain Text
Title : русский (VitalD)
Language : Russian
Default : Yes
Forced : No
Menu
00:00:00.000 : en:Chapter 01
00:09:43.000 : en:Chapter 02
00:18:12.000 : en:Chapter 03
00:29:31.000 : en:Chapter 04
00:38:18.000 : en:Chapter 05
00:48:27.000 : en:Chapter 06
00:57:52.000 : en:Chapter 07
01:07:57.000 : en:Chapter 08
01:16:55.000 : en:Chapter 09
01:22:36.000 : en:Chapter 10
Сэмпл: http://multi-up.com/934157

Скриншот c названием фильма

Скриншоты

Скачать

Скачать торрент!

Как скачивать? · Что такое торрент? · Рейтинг и ограничения

Сайт не распространяет и не хранит электронные версии произведений, а лишь предоставляет доступ к создаваемому пользователями каталогу ссылок на торрент-файлы, которые содержат только списки хеш-сумм

[Профиль] [ЛС]
Показать сообщения:    
Ответить на тему

Текущее время: Сегодня 02:18

Часовой пояс: GMT + 4



Вы не можете начинать темы
Вы не можете отвечать на сообщения
Вы не можете редактировать свои сообщения
Вы не можете удалять свои сообщения
Вы не можете голосовать в опросах
Вы не можете прикреплять файлы к сообщениям
Вы не можете скачивать файлы