Страсти Дон Жуана / Don Jon (Джозеф Гордон-Левитт / Joseph Gordon-Levitt) [2013, США, комедия, мелодрама, BDRip 720p] Dub + Original Eng + Sub Eng

Ответить на тему
 
Автор Сообщение

user ®

Стаж: 7 лет 7 месяцев

Сообщений: 20008

Пост Пост: #1 от 19-Дек-2013 00:00

[Цитировать]

Страсти Дон ЖуанаDon Jon«В этой жизни меня заботит всего несколько вещей: мое тело, мой дом, моя тачка, мои друзья, мои телки и… порнуха»- Страна: США
Жанр: комедия, мелодрама
Год выпуска: 2013
Продолжительность: 01:30:13-Перевод: Профессиональный (полное дублирование)
Субтитры: английские
Режиссер: Джозеф Гордон-Левитт / Joseph Gordon-Levitt
В ролях:
Джозеф Гордон-Левитт, Скарлетт Йоханссон, Джулианна Мур, Тони Данца, Гленн Хедли, Бри Ларсон, Роб Браун, Джереми Люк, Пол Бен-Виктор, Италиа Риччи
Дублёры: Сергей Смирнов (Jon), Татьяна Шитова (Barbara), Елена Соловьева (Esther), Валерий Сторожик (Jon Sr.), Лариса Некипелова (Angela), Пётр Иващенко (Bobby), Даниил Эльдаров (Danny), Леонид Белозорович (Priest), Елена Войновская (Barbara's Mom)-Описание: Комичная история современного ловеласа, который из каждого любовного приключения вынужден спасаться бегством. Он еще не знает, что недалек тот час, когда ему все-таки придется остепениться...-

MPAA: R - Лицам до 17 лет обязательно присутствие взрослого-Качество: BDRip
Контейнер: MKV
Сэмпл
Видео: AVC, 1280x536 (2.40:1), 6665 kbps, 23,976 fps, 0,405 bpp
Аудио №1: русский / AC3 / 5.1 / 48 kHz / 640 kbps / 16 bit |Дубляж|
Аудио №2: английский / AC3 / 5.1 / 48 kHz / 384 kbps / 16 bit |Оригинал|-

Media Info

General
Unique ID : 186204044060085457524205994671119911030 (0x8C15982C0C80716CBB80200CBF09C876)
Complete name : D:\Don.Jon.2013.BDRip.720p.Dub.Orig.Subs.mkv
Format : Matroska
Format version : Version 4 / Version 2
File size : 4.94 GiB
Duration : 1h 30mn
Overall bit rate : 7 846 Kbps
Encoded date : UTC 2013-12-18 10:14:48
Writing application : mkvmerge v6.5.0 ('Isn't she lovely') built on Oct 20 2013 12:50:05
Writing library : libebml v1.3.0 + libmatroska v1.4.1
Video
ID : 1
Format : AVC
Format/Info : Advanced Video Codec
Format profile : High@L4.0
Format settings, CABAC : Yes
Format settings, ReFrames : 8 frames
Codec ID : V_MPEG4/ISO/AVC
Duration : 1h 30mn
Bit rate : 6 665 Kbps
Width : 1 280 pixels
Height : 536 pixels
Display aspect ratio : 2.40:1
Frame rate : 23.976 fps
Color space : YUV
Chroma subsampling : 4:2:0
Bit depth : 8 bits
Scan type : Progressive
Bits/(Pixel*Frame) : 0.405
Stream size : 4.20 GiB (85%)
Writing library : x264 core 130 r2273 b3065e6
Encoding settings : cabac=1 / ref=8 / deblock=1:-2:-2 / analyse=0x3:0x133 / me=umh / subme=11 / psy=1 / psy_rd=1.00:0.15 / mixed_ref=1 / me_range=24 / chroma_me=1 / trellis=2 / 8x8dct=1 / cqm=0 / deadzone=21,11 / fast_pskip=0 / chroma_qp_offset=-3 / threads=12 / lookahead_threads=3 / sliced_threads=0 / nr=0 / decimate=1 / interlaced=0 / bluray_compat=0 / constrained_intra=0 / bframes=10 / b_pyramid=2 / b_adapt=2 / b_bias=0 / direct=3 / weightb=1 / open_gop=0 / weightp=2 / keyint=250 / keyint_min=23 / scenecut=40 / intra_refresh=0 / rc_lookahead=60 / rc=crf / mbtree=1 / crf=16.6 / qcomp=0.60 / qpmin=0 / qpmax=69 / qpstep=4 / ip_ratio=1.40 / aq=2:1.00
Language : English
Default : Yes
Forced : No
Audio #1
ID : 2
Format : AC-3
Format/Info : Audio Coding 3
Mode extension : CM (complete main)
Codec ID : A_AC3
Duration : 1h 30mn
Bit rate mode : Constant
Bit rate : 640 Kbps
Channel(s) : 6 channels
Channel positions : Front: L C R, Side: L R, LFE
Sampling rate : 48.0 KHz
Bit depth : 16 bits
Compression mode : Lossy
Stream size : 413 MiB (8%)
Title : Dub
Language : Russian
Default : Yes
Forced : No
Audio #2
ID : 3
Format : AC-3
Format/Info : Audio Coding 3
Mode extension : CM (complete main)
Codec ID : A_AC3
Duration : 1h 30mn
Bit rate mode : Constant
Bit rate : 384 Kbps
Channel(s) : 6 channels
Channel positions : Front: L C R, Side: L R, LFE
Sampling rate : 48.0 KHz
Bit depth : 16 bits
Compression mode : Lossy
Stream size : 248 MiB (5%)
Title : Orig
Language : English
Default : No
Forced : No
Text
ID : 4
Format : UTF-8
Codec ID : S_TEXT/UTF8
Codec ID/Info : UTF-8 Plain Text
Language : English
Default : No
Forced : No

Скриншоты

Скачать

Скачать торрент!

Как скачивать? · Что такое торрент? · Рейтинг и ограничения

Сайт не распространяет и не хранит электронные версии произведений, а лишь предоставляет доступ к создаваемому пользователями каталогу ссылок на торрент-файлы, которые содержат только списки хеш-сумм

[Профиль] [ЛС]
Показать сообщения:    
Ответить на тему

Текущее время: Сегодня 18:34

Часовой пояс: GMT + 4



Вы не можете начинать темы
Вы не можете отвечать на сообщения
Вы не можете редактировать свои сообщения
Вы не можете удалять свои сообщения
Вы не можете голосовать в опросах
Вы не можете прикреплять файлы к сообщениям
Вы не можете скачивать файлы