Спасти Санту / Saving Santa (Леон Джусен / Leon Joosen, Аарон Силман / Aaron Seelman) [2013 г., мультфильм, мюзикл, приключения, семейный, BDRip-AVC] (GER Transfer) Dub + Eng + Sub (Ger)

Ответить на тему
 
Автор Сообщение

user ®

Стаж: 13 лет

Сообщений: 15041

Пост Пост: #1 от 18-Дек-2013 05:30

[Цитировать]

- P R E S E N T SСпасти Санту / Saving Santa- Страна: Великобритания
Жанр: мультфильм, мюзикл, приключения, семейный
Продолжительность: 01:23:54
Год выпуска: 2013
Перевод: Профессиональный (полное дублирование)
Субтитры: русских нет-Режиссёр: Леон Джусен / Leon Joosen, Аарон Силман / Aaron Seelman
Роли озвучивали: Мартин Фриман, Тим Карри, Тим Конуэй, Эшли Тисдейл, Ксавье Алькан, Крис Барри, Ноэль Кларк, Джоан Коллинз, Ребекка Фердинандо, Пэм Феррис, Крис Нью, Ник Симунэк, Терри Стоун, Алекс Уолкиншоу
Роли дублировали: Владислав Лисовец, Алексей Чумаков, Юлия Ковальчук, Михаил Пореченков, Александр Воронов-(RG Мультфильмы ), Сергей Чумаков, Ольга Голованова, Александр Зачиняев, Владимир Рыбальченко, Екатерина Мирошникова- | | -Описание: Эльф Бернард - очень мил, весел, и... слегка несерьёзен. Но ему придется измениться, ведь у него впереди потрясающее и очень опасное приключение! Кто-то собирается похитить Санту и его волшебные сани, в которых можно перемещаться в разные эпохи. А без Санты Новый год никогда не наступит! Бернарду придётся переместиться во времени, сразиться со злодеем, остановить его армию, изменить прошлое, спасти Новый год и стать настоящим героем!...-Доп. информация: BDRip-AVC 532p (1.85:1) сделан с Blu-Ray диска Saving Santa 2013 1080p GER Blu-ray AVC DTS-HD MA 5 1.
Отдельное спасибо xfiles за подготовку русской звуковой дорожки.
-Сэмпл/Sample (15.5 MB, 1 минута)-Качество: BDRip-AVC
Формат: MKV
Видео: 984x532 (1.85:1), 23,976 fps, ~1546 kbps avg, 0.123 bit/pixel
Аудио #1: Русский, AC3, 6 ch, 48 kHz, 384 kbps - Дубляж | DVD5 R5 | Студия "SOL PRO"
Аудио #2: English, AC3, 6 ch, 48 kHz, 448 kbps - Original
Субтитры: German (Full, Forced)
Навигация по главам: есть (12 не именованных глав)

MediaInfo / x264Log

x264Log

raw [info]: 984x532p 1:1 @ 24000/1001 fps (cfr)x264 [info]: using SAR=1/1x264 [info]: using cpu capabilities: MMX2 SSE2Fast SSSE3 SSE4.2 AVX XOP FMA4 FMA3 LZCNT BMI1x264 [info]: profile High, level 4.1x264 [info]: frame I:1274 Avg QP:14.18 size: 58692 PSNR Mean Y:49.57 U:51.80 V:51.06 Avg:50.09 Global:49.61x264 [info]: frame P:30383 Avg QP:17.15 size: 15979 PSNR Mean Y:48.64 U:51.13 V:50.30 Avg:49.19 Global:48.59x264 [info]: frame B:89049 Avg QP:20.28 size: 4633 PSNR Mean Y:48.39 U:51.28 V:50.30 Avg:48.99 Global:48.12x264 [info]: consecutive B-frames: 4.2% 5.0% 12.2% 27.1% 18.1% 20.1% 5.8% 6.2% 0.2% 0.2% 0.1% 0.8%x264 [info]: mb I I16..4: 8.3% 63.0% 28.7%x264 [info]: mb P I16..4: 1.6% 12.7% 3.3% P16..4: 22.3% 22.2% 8.0% 1.6% 0.2% skip:28.2%x264 [info]: mb B I16..4: 0.3% 1.6% 0.4% B16..8: 22.1% 12.7% 2.0% direct: 2.5% skip:58.3% L0:38.0% L1:46.2% BI:15.9%x264 [info]: 8x8 transform intra:70.3% inter:60.4%x264 [info]: coded y,uvDC,uvAC intra: 71.5% 85.4% 66.8% inter: 10.3% 11.0% 3.5%x264 [info]: i16 v,h,dc,p: 32% 13% 5% 49%x264 [info]: i8 v,h,dc,ddl,ddr,vr,hd,vl,hu: 14% 14% 11% 7% 10% 10% 11% 10% 14%x264 [info]: i4 v,h,dc,ddl,ddr,vr,hd,vl,hu: 26% 12% 11% 6% 11% 9% 10% 6% 8%x264 [info]: i8c dc,h,v,p: 30% 33% 19% 18%x264 [info]: Weighted P-Frames: Y:2.5% UV:1.5%x264 [info]: ref P L0: 56.8% 10.7% 14.4% 5.1% 3.5% 2.8% 2.2% 1.3% 1.0% 1.0% 0.9% 0.2% 0.0%x264 [info]: ref B L0: 82.0% 7.9% 3.7% 1.7% 1.5% 1.0% 1.1% 0.6% 0.3% 0.2%x264 [info]: ref B L1: 94.0% 6.0%x264 [info]: SSIM Mean Y:0.9916949 (20.807db)x264 [info]: PSNR Mean Y:48.465 U:51.251 V:50.311 Avg:49.050 Global:48.246 kb/s:1545.86encoded 120706 frames, 14.18 fps, 1545.86 kb/s
GeneralUnique ID : 251373241033093989911187081926149351901 (0xBD1CB9A783EA8ECEB65AB2B8AA0329DD)Complete name : Saving.Santa.2013.BDRip-AVC.532p.dfcbit.mkvFormat : MatroskaFormat version : Version 2File size : 1.39 GiBDuration : 1h 23mnOverall bit rate : 2 380 KbpsEncoded date : UTC 2013-12-17 15:33:12Writing application : mkvmerge v4.0.0 ('The Stars were mine') built on Jun 6 2010 16:18:42Writing library : libebml v1.0.0 + libmatroska v1.0.0
VideoID : 1Format : AVCFormat/Info : Advanced Video CodecFormat profile : High@L4.1Format settings, CABAC : YesFormat settings, ReFrames : 11 framesCodec ID : V_MPEG4/ISO/AVCDuration : 1h 23mnBit rate : 1 546 KbpsWidth : 984 pixelsHeight : 532 pixelsDisplay aspect ratio : 1.85:1Frame rate mode : ConstantFrame rate : 23.976 fpsColor space : YUVChroma subsampling : 4:2:0Bit depth : 8 bitsScan type : ProgressiveBits/(Pixel*Frame) : 0.123Stream size : 928 MiB (63%)Title : NTSC, 984x532 (1.85:1), BDRip 532p - tRuAVC & Multfilmy [DFCbit]Writing library : x264 core 140 r2377kMod 1ca7bb9Encoding settings : cabac=1 / ref=11 / deblock=1:-2:-1 / analyse=0x3:0x133 / me=umh / subme=11 / psy=1 / fade_compensate=0.00 / psy_rd=0.60:0.00 / mixed_ref=1 / me_range=32 / chroma_me=1 / trellis=2 / 8x8dct=1 / cqm=0 / deadzone=21,11 / fast_pskip=0 / chroma_qp_offset=-2 / threads=12 / lookahead_threads=3 / sliced_threads=0 / nr=0 / decimate=1 / interlaced=0 / bluray_compat=0 / constrained_intra=0 / fgo=0 / bframes=11 / b_pyramid=2 / b_adapt=2 / b_bias=0 / direct=1 / weightb=1 / open_gop=0 / weightp=2 / keyint=250 / keyint_min=23 / scenecut=40 / intra_refresh=0 / rc_lookahead=70 / rc=crf / mbtree=0 / crf=18.5400 / qcomp=0.80 / qpmin=0 / qpmax=69 / qpstep=4 / vbv_maxrate=25000 / vbv_bufsize=50000 / crf_max=0.0 / nal_hrd=none / filler=0 / ip_ratio=1.40 / pb_ratio=1.30 / aq=3:0.90Language : EnglishDefault : YesForced : NoColor primaries : BT.709Transfer characteristics : BT.709Matrix coefficients : BT.709
Audio #1ID : 2Format : AC-3Format/Info : Audio Coding 3Mode extension : CM (complete main)Format settings, Endianness : BigCodec ID : A_AC3Duration : 1h 23mnBit rate mode : ConstantBit rate : 384 KbpsChannel(s) : 6 channelsChannel positions : Front: L C R, Side: L R, LFESampling rate : 48.0 KHzBit depth : 16 bitsCompression mode : LossyStream size : 230 MiB (16%)Title : AC3, 6 ch, 48 kHz, 384 kbps - Дубляж | Студия "SOL PRO"Language : RussianDefault : YesForced : No
Audio #2ID : 3Format : AC-3Format/Info : Audio Coding 3Mode extension : CM (complete main)Format settings, Endianness : BigCodec ID : A_AC3Duration : 1h 23mnBit rate mode : ConstantBit rate : 448 KbpsChannel(s) : 6 channelsChannel positions : Front: L C R, Side: L R, LFESampling rate : 48.0 KHzBit depth : 16 bitsCompression mode : LossyStream size : 269 MiB (19%)Title : AC3, 6 ch, 48 kHz, 448 kbps - OriginalLanguage : EnglishDefault : NoForced : No
Text #1ID : 4Format : UTF-8Codec ID : S_TEXT/UTF8Codec ID/Info : UTF-8 Plain TextTitle : SRT, FullLanguage : GermanDefault : NoForced : No
Text #2ID : 5Format : UTF-8Codec ID : S_TEXT/UTF8Codec ID/Info : UTF-8 Plain TextTitle : SRT, ForcedLanguage : GermanDefault : NoForced : No
Menu00:00:00.000 : en:Chapter 100:09:08.381 : en:Chapter 200:15:11.119 : en:Chapter 300:22:06.700 : en:Chapter 400:29:23.428 : en:Chapter 500:39:12.308 : en:Chapter 600:47:16.667 : en:Chapter 700:54:38.525 : en:Chapter 801:03:50.618 : en:Chapter 901:10:20.174 : en:Chapter 1001:16:39.762 : en:Chapter 1101:19:49.785 : en:Chapter 12

Скриншоты

Скриншот с названием мультфильма
--BDRip-AVC


Source Blu-Ray

-Данный релиз не будет воспроизводиться на бытовых плеерах не поддерживающих MKV и H.264
Скачать

Скачать торрент! Спасти Санту / Saving Santa (Леон Джусен / Leon Joosen, Аарон Силман / Aaron Seelman) [2013 г., мультфильм, мюзикл, приключения, семейный, BDRip-AVC] (GER Transfer) Dub + Eng + Sub (Ger)

Как скачивать? · Что такое торрент? · Рейтинг и ограничения

Сайт не распространяет и не хранит электронные версии произведений, а лишь предоставляет доступ к создаваемому пользователями каталогу ссылок на торрент-файлы, которые содержат только списки хеш-сумм

[Профиль] [ЛС]
Показать сообщения:    
Ответить на тему

Текущее время: Сегодня 03:33

Часовой пояс: GMT + 4



Вы не можете начинать темы
Вы не можете отвечать на сообщения
Вы не можете редактировать свои сообщения
Вы не можете удалять свои сообщения
Вы не можете голосовать в опросах
Вы не можете прикреплять файлы к сообщениям
Вы не можете скачивать файлы