Продано за долги / 4Closed (Ник Лион / Nick Lyon) [2013, США, триллер, драма, WEB-DL 720p] VO + Original (Eng) + Sub (eng)

Ответить на тему
 
Автор Сообщение

user ®

Стаж: 7 лет 7 месяцев

Сообщений: 20008

Пост Пост: #1 от 17-Дек-2013 23:10

[Цитировать]

Продано за долги : 4Closed«They took his home... He's come for theirs!» Страна: США
Год выпуска: 2013
Жанр: триллер, драма
Продолжительность: 01:30:53
Перевод: Одноголосый закадровый [den904] по переводу [Antonio]
русские субтитры: нет-Режиссёр: Ник Лион : Nick Lyon
В главных ролях: Марли Мэтлин, Джеймс Дентон, Пол Сорвино, Джейми Кеннеди, Алекс Фринка, Кристина ДеРоса, Сара Флетчер, Мадонна Янг, Нэн МакНамара, Арнелл Пауэлл-Описание: Когда молодая семья покупает себе новый дом на рынке вторичного жилья, то сразу же после новоселья старый владелец начинает терроризировать их… Он не остановится ни перед чем, чтобы вернуть свой дом обратно!- -Качество: WEB-DL 720p
Формат: MKV
Видео кодек: AVC
Аудио кодек: АС3
Видео: 1280x720, 23.976 fps, ~4 026 kbps avg, 0.182 bit/pixel
Аудио #1: [RUS] 48 kHz, AC3 Dolby Digital, 2/0 (L,R) ch, ~192 kbps kbps
Аудио #2: [ENG] 48 kHz, AC3 Dolby Digital, 3/2 (L,C,R,l,r) + LFE ch, ~384 kbps
субтитры: английские
навигация по главам: 10 глав

скриншоты

MediaInfo

Общее
Уникальный идентификатор : 214106646791182499943583106049151733887 (0xA11370B3397513DABD8F4816174E107F)
Полное имя : D:\Im\Продано за долги\4Closed.2013.WEB-DL 720p.mkv
Формат : Matroska
Версия формата : Version 4 / Version 2
Размер файла : 2,98 Гбайт
Продолжительность : 1 ч. 30 м.
Общий поток : 4695 Кбит/сек
Дата кодирования : UTC 2013-12-17 10:09:55
Программа кодирования : mkvmerge v6.5.0 ('Isn't she lovely') built on Oct 20 2013 12:50:05
Библиотека кодирования : libebml v1.3.0 + libmatroska v1.4.1
Видео
Идентификатор : 1
Формат : AVC
Формат/Информация : Advanced Video Codec
Профиль формата : High@L3.1
Параметр CABAC формата : Нет
Параметр ReFrames формата : 2 кадра
Идентификатор кодека : V_MPEG4/ISO/AVC
Продолжительность : 1 ч. 30 м.
Битрейт : 4026 Кбит/сек
Ширина : 1280 пикселей
Высота : 720 пикселей
Соотношение сторон : 16:9
Частота кадров : 23,976 кадра/сек
Цветовое пространство : YUV
Субдискретизация насыщенности : 4:2:0
Битовая глубина : 8 бит
Тип развёртки : Прогрессивная
Бит/(Пиксели*Кадры) : 0.182
Размер потока : 2,56 Гбайт (86%)
Язык : English
Default : Да
Forced : Нет
Основные цвета : BT.709-5, BT.1361, IEC 61966-2-4, SMPTE RP177
Характеристики трансфера : BT.709-5, BT.1361
Коэффициенты матрицы : BT.709-5, BT.1361, IEC 61966-2-4 709, SMPTE RP177
Аудио #1
Идентификатор : 2
Формат : AC-3
Формат/Информация : Audio Coding 3
Расширение режима : CM (complete main)
Идентификатор кодека : A_AC3
Продолжительность : 1 ч. 30 м.
Вид битрейта : Постоянный
Битрейт : 192 Кбит/сек
Каналы : 2 канала
Расположение каналов : Front: L R
Частота : 48,0 КГц
Битовая глубина : 16 бит
Метод сжатия : С потерями
Размер потока : 125 Мбайт (4%)
Заголовок : VO [den904]
Язык : Russian
Default : Да
Forced : Нет
Аудио #2
Идентификатор : 3
Формат : AC-3
Формат/Информация : Audio Coding 3
Расширение режима : CM (complete main)
Идентификатор кодека : A_AC3
Продолжительность : 1 ч. 30 м.
Вид битрейта : Постоянный
Битрейт : 384 Кбит/сек
Каналы : 6 каналов
Расположение каналов : Front: L C R, Side: L R, LFE
Частота : 48,0 КГц
Битовая глубина : 16 бит
Метод сжатия : С потерями
Размер потока : 250 Мбайт (8%)
Заголовок : ENG
Язык : English
Default : Нет
Forced : Нет
Текст
Идентификатор : 4
Формат : UTF-8
Идентификатор кодека : S_TEXT/UTF8
Идентификатор кодека/Информация : UTF-8 Plain Text
Заголовок : Eng Sub
Язык : English
Default : Нет
Forced : Нет
Меню
00:00:00.000 : en:Chapter 1
00:10:02.000 : en:Chapter 2
00:20:34.000 : en:Chapter 3
00:31:48.000 : en:Chapter 4
00:41:19.000 : en:Chapter 5
00:52:09.000 : en:Chapter 6
01:00:09.000 : en:Chapter 7
01:11:33.000 : en:Chapter 8
01:19:11.000 : en:Chapter 9
01:28:01.000 : en:Chapter 10
Скачать

Скачать торрент!

Как скачивать? · Что такое торрент? · Рейтинг и ограничения

Сайт не распространяет и не хранит электронные версии произведений, а лишь предоставляет доступ к создаваемому пользователями каталогу ссылок на торрент-файлы, которые содержат только списки хеш-сумм

[Профиль] [ЛС]
Показать сообщения:    
Ответить на тему

Текущее время: Сегодня 16:11

Часовой пояс: GMT + 4



Вы не можете начинать темы
Вы не можете отвечать на сообщения
Вы не можете редактировать свои сообщения
Вы не можете удалять свои сообщения
Вы не можете голосовать в опросах
Вы не можете прикреплять файлы к сообщениям
Вы не можете скачивать файлы