Грубая игра: Актер есть актер / Rough Play: An Actor is An Actor (Ли Джун / Lee Joon) [2013, Юж. Корея, драма, боевик, HDTVRip] DVO

Ответить на тему
 
Автор Сообщение

user ®

Стаж: 11 лет

Сообщений: 15151

Пост Пост: #1 от 17-Дек-2013 20:00

[Цитировать]

Грубая игра: Актер есть актер / Rough Play: An Actor is An Actor
Страна: Юж. Корея
Жанр: драма, боевик
Год выпуска: 2013
Продолжительность: 01:38:03
Перевод: Любительский (двухголосый закадровый) [Den904 & DeadSno]
Cубтитры: нет
Режиссер: Ли Джун / Lee Joon
В ролях: Со Ён Хи, Ян Дон Гын, Ким Хён Джун, Кан Шин Хё, Со Бом Сок, Ли Сэ Бюль, Ки Чжу Пон, Ма Дон Сок, О Кван Рок и др.
Описание: О Ён - актер второго плана, мечтающий стать большой звездой. И вот, однажды, у него появляется шанс взлететь на вершину славы. Он становится популярным благодаря лишь одному фильму.
Но ничего не дается даром, за все надо платить. И он платит за это своей душой и честью.
Мораль - задирая нос, не сломай шею.
Доп. информация: IMDB:7.9
Сэмпл: http://multi-up.com/933171
Качество видео: HDTVRip
Формат видео: AVI
Видео: 720x304,29.970 fps,XviD build 50,865 kbps avg,0.13 bit/pixel
Аудио: 48 kHz,MPEG Layer 3,2 ch,128.00 kbps avg

MediaInfo

Общее
Полное имя : D:\Filmi\Rough.Play.2013.L2.HDTVRip.1400mb.avi
Формат : AVI
Формат/Информация : Audio Video Interleave
Размер файла : 705 Мбайт
Продолжительность : 1 ч. 38 м.
Общий поток : 1005 Кбит/сек
Видео
Идентификатор : 0
Формат : MPEG-4 Visual
Профиль формата : Advanced Simple@L5
Параметр BVOP формата : 2
Параметр QPel формата : Нет
Параметр GMC формата : Без точки перехода
Параметр матрицы формата : Default (H.263)
Идентификатор кодека : XVID
Идентификатор кодека/Подсказка : XviD
Продолжительность : 1 ч. 38 м.
Битрейт : 865 Кбит/сек
Ширина : 720 пикселей
Высота : 304 пикселя
Соотношение сторон : 2,35:1
Частота кадров : 29,970 кадров/сек
Цветовое пространство : YUV
Субдискретизация насыщенности : 4:2:0
Битовая глубина : 8 бит
Метод сжатия : С потерями
Бит/(Пиксели*Кадры) : 0.132
Размер потока : 607 Мбайт (86%)
Библиотека кодирования : XviD 1.2.1 (UTC 2008-12-04)
Аудио
Идентификатор : 1
Формат : MPEG Audio
Версия формата : Version 1
Профиль формата : Layer 3
Идентификатор кодека : 55
Идентификатор кодека/Подсказка : MP3
Продолжительность : 1 ч. 38 м.
Вид битрейта : Постоянный
Битрейт : 128 Кбит/сек
Каналы : 2 канала
Частота : 48,0 КГц
Размер потока : 89,8 Мбайт (13%)
Выравнивание : Соединение по промежуткам
Продолжительность промежутка : 33 мс. (1,00 видеокадр)
Время предзагрузки промежутка : 504 мс.
Библиотека кодирования : LAME3.99r
Настройки программы : -m s -V 4 -q 2 -lowpass 17 -b 128

Скриншот c названием фильма

Скриншоты

Скачать

Скачать торрент! Грубая игра: Актер есть актер / Rough Play: An Actor is An Actor (Ли Джун / Lee Joon) [2013, Юж. Корея, драма, боевик, HDTVRip] DVO

Как скачивать? · Что такое торрент? · Рейтинг и ограничения

Сайт не распространяет и не хранит электронные версии произведений, а лишь предоставляет доступ к создаваемому пользователями каталогу ссылок на торрент-файлы, которые содержат только списки хеш-сумм

[Профиль] [ЛС]
Показать сообщения:    
Ответить на тему

Текущее время: Сегодня 16:35

Часовой пояс: GMT + 4



Вы не можете начинать темы
Вы не можете отвечать на сообщения
Вы не можете редактировать свои сообщения
Вы не можете удалять свои сообщения
Вы не можете голосовать в опросах
Вы не можете прикреплять файлы к сообщениям
Вы не можете скачивать файлы