Cамoлеты / Planеs (Kлэй Xолл / Klaу Нall) [2013 г., мультфильм, приключения, комедия, семейный, BDRip-AVC] (Оригинальный видеоряд) Dub + Eng + Subs (Rus, Eng, Fre, Spa)

Ответить на тему
 
Автор Сообщение

user ®

Стаж: 13 лет

Сообщений: 15041

Пост Пост: #1 от 15-Дек-2013 03:25

[Цитировать]

| BDRip-AVC, 2.93 GB |- P R E S E N T SСамолеты / Planes- Страна: США
Жанр: мультфильм, приключения, комедия, семейный
Продолжительность: 01:31:35
Год выпуска: 2013
Перевод: Профессиональный (полное дублирование)
Субтитры: есть-Режиссёр: Клэй Холл / Klay Hall
Роли озвучивали: Дейн Кук, Стейси Кич, Брэд Гэррет, Тери Хэтчер, Джулия Луис-Дрейфус, Приянка Чопра, Джон Клиз, Седрик "Развлекатель", Карлос Алазраки, Роджер Крэйг Смит, Энтони Эдвардс, Вэл Килмер, Синбад, Гэбриел Иглесиас, Брент Мусбургер...
Роли дублировали: Константин Крюков, Нонна Гришаева, Равшана Куркова, Алексей Чумаков, Александр Ноткин, Александр Балакирев, Валерий Смекалов- | | -Описание: Дасти Полейполе - скромный трудяга-самолет, работающий сельскохозяйственным распылителем на заштатном провинциальном аэродроме. Однако это не мешает ему мечтать о том, чтобы однажды принять участие в кругосветных гонках самых быстрых самолетов. Одна незадача - Дасти панически боится большой высоты. Поэтому, когда волею случая он все же попадает в число участников отборочного тура воздушных соревнований, ему приходится искать помощи у ветерана военно-морской авиации, отставного истребителя Шкипера. С помощью мудрого наставника Дасти сможет преодолеть свои слабости и бросить вызов надменному чемпиону Рипслингеру, а весь мир будет с замиранием сердца следить за гонкой в небесах!...-Доп. информация: BDRip-AVC 1216x684 (1.778:1) сделан с Blu-Ray диска Planes 2013 BluRay 1080p AVC DTS-HD MA7.1-CHDBits (Оригинальный видеоряд).
Отдельное спасибо xfiles за подготовку субтитров.
-Сэмпл/Sample (22 MB, 1 минута)-Качество: BDRip-AVC
Формат: MKV
Видео: 1216x684 (1.778:1), 23,976 fps, ~3679 kbps avg, 0.185 bit/pixel
Аудио #1: Русский, AC3, 6 ch, 48 kHz, 448 kbps - Дубляж | BD CEE
Аудио #2: English, AC3, 6 ch, 48 kHz, 448 kbps - Original
Субтитры: Русские (полные, форсированные), English (Full, SDH), French (Full, Forced), Spanish (Full, Forced)
Навигация по главам: есть (20 именованных глав)

MediaInfo / x264Log

x264Log

raw [info]: 1216x684p 1:1 @ 24000/1001 fps (cfr)x264 [info]: using SAR=1/1x264 [info]: using cpu capabilities: MMX2 SSE2Fast SSSE3 SSE4.2 AVX XOP FMA4 FMA3 LZCNT BMI1x264 [info]: profile High, level 4.1x264 [info]: frame I:1109 Avg QP:13.75 size:131469 PSNR Mean Y:48.79 U:52.61 V:52.78 Avg:49.41 Global:48.91x264 [info]: frame P:36395 Avg QP:15.74 size: 35125 PSNR Mean Y:47.83 U:53.72 V:54.02 Avg:48.52 Global:47.88x264 [info]: frame B:94250 Avg QP:19.07 size: 11706 PSNR Mean Y:47.01 U:52.85 V:53.15 Avg:47.74 Global:47.08x264 [info]: consecutive B-frames: 4.7% 4.6% 20.8% 30.4% 16.1% 18.0% 2.2% 1.3% 0.7% 0.3% 0.4% 0.5%x264 [info]: mb I I16..4: 4.3% 61.5% 34.3%x264 [info]: mb P I16..4: 1.6% 13.6% 3.1% P16..4: 22.7% 25.3% 11.1% 2.8% 0.3% skip:19.4%x264 [info]: mb B I16..4: 0.3% 2.3% 0.4% B16..8: 25.0% 17.2% 3.1% direct: 4.3% skip:47.4% L0:38.9% L1:44.7% BI:16.5%x264 [info]: 8x8 transform intra:73.7% inter:50.7%x264 [info]: coded y,uvDC,uvAC intra: 83.2% 82.6% 64.2% inter: 17.3% 15.2% 5.1%x264 [info]: i16 v,h,dc,p: 10% 15% 4% 71%x264 [info]: i8 v,h,dc,ddl,ddr,vr,hd,vl,hu: 8% 17% 10% 8% 10% 9% 12% 10% 17%x264 [info]: i4 v,h,dc,ddl,ddr,vr,hd,vl,hu: 10% 18% 7% 7% 13% 10% 13% 8% 13%x264 [info]: i8c dc,h,v,p: 34% 37% 14% 15%x264 [info]: Weighted P-Frames: Y:3.5% UV:2.8%x264 [info]: ref P L0: 55.5% 9.2% 15.0% 5.5% 3.9% 3.6% 2.6% 1.6% 1.3% 1.5% 0.4% 0.0%x264 [info]: ref B L0: 77.3% 10.4% 4.9% 2.3% 1.7% 1.5% 1.2% 0.5% 0.3%x264 [info]: ref B L1: 92.4% 7.6%x264 [info]: SSIM Mean Y:0.9903560 (20.157db)x264 [info]: PSNR Mean Y:47.252 U:53.086 V:53.389 Avg:47.966 Global:47.299 kb/s:3679.43encoded 131754 frames, 7.95 fps, 3679.43 kb/s
GeneralUnique ID : 227493311693776960223137587452906584466 (0xAB259E3CB62F479E97B355C6B0283992)Complete name : Planes.2013.BDRip.684p.dfcbit.mkvFormat : MatroskaFormat version : Version 2File size : 2.93 GiBDuration : 1h 31mnOverall bit rate : 4 578 KbpsEncoded date : UTC 2013-12-12 17:16:11Writing application : mkvmerge v4.0.0 ('The Stars were mine') built on Jun 6 2010 16:18:42Writing library : libebml v1.0.0 + libmatroska v1.0.0
VideoID : 1Format : AVCFormat/Info : Advanced Video CodecFormat profile : High@L4.1Format settings, CABAC : YesFormat settings, ReFrames : 10 framesCodec ID : V_MPEG4/ISO/AVCDuration : 1h 31mnBit rate : 3 679 KbpsWidth : 1 216 pixelsHeight : 684 pixelsDisplay aspect ratio : 16:9Frame rate mode : ConstantFrame rate : 23.976 fpsColor space : YUVChroma subsampling : 4:2:0Bit depth : 8 bitsScan type : ProgressiveBits/(Pixel*Frame) : 0.185Stream size : 2.35 GiB (78%)Title : NTSC, 1216x684 (1.778:1), BDRip 684p - tRuAVC & Multfilmy [DFCbit]Writing library : x264 core 140 r2377kMod 1ca7bb9Encoding settings : cabac=1 / ref=10 / deblock=1:-2:-1 / analyse=0x3:0x133 / me=umh / subme=11 / psy=1 / fade_compensate=0.00 / psy_rd=0.60:0.00 / mixed_ref=1 / me_range=32 / chroma_me=1 / trellis=2 / 8x8dct=1 / cqm=0 / deadzone=21,11 / fast_pskip=0 / chroma_qp_offset=-2 / threads=12 / lookahead_threads=3 / sliced_threads=0 / nr=0 / decimate=1 / interlaced=0 / bluray_compat=0 / constrained_intra=0 / fgo=0 / bframes=11 / b_pyramid=2 / b_adapt=2 / b_bias=0 / direct=1 / weightb=1 / open_gop=0 / weightp=2 / keyint=250 / keyint_min=23 / scenecut=40 / intra_refresh=0 / rc_lookahead=70 / rc=crf / mbtree=0 / crf=17.2530 / qcomp=0.80 / qpmin=0 / qpmax=69 / qpstep=4 / vbv_maxrate=50000 / vbv_bufsize=62500 / crf_max=0.0 / nal_hrd=none / filler=0 / ip_ratio=1.40 / pb_ratio=1.30 / aq=3:0.90Language : EnglishDefault : YesForced : NoColor primaries : BT.709Transfer characteristics : BT.709Matrix coefficients : BT.709
Audio #1ID : 2Format : AC-3Format/Info : Audio Coding 3Mode extension : CM (complete main)Format settings, Endianness : BigCodec ID : A_AC3Duration : 1h 31mnBit rate mode : ConstantBit rate : 448 KbpsChannel(s) : 6 channelsChannel positions : Front: L C R, Side: L R, LFESampling rate : 48.0 KHzBit depth : 16 bitsCompression mode : LossyStream size : 293 MiB (10%)Title : AC3, 6 ch, 48 kHz, 448 kbps - Дубляж | BD CEELanguage : RussianDefault : YesForced : No
Audio #2ID : 3Format : AC-3Format/Info : Audio Coding 3Mode extension : CM (complete main)Format settings, Endianness : BigCodec ID : A_AC3Duration : 1h 31mnBit rate mode : ConstantBit rate : 448 KbpsChannel(s) : 6 channelsChannel positions : Front: L C R, Side: L R, LFESampling rate : 48.0 KHzBit depth : 16 bitsCompression mode : LossyStream size : 293 MiB (10%)Title : AC3, 6 ch, 48 kHz, 448 kbps - OriginalLanguage : EnglishDefault : NoForced : No
Text #1ID : 4Format : UTF-8Codec ID : S_TEXT/UTF8Codec ID/Info : UTF-8 Plain TextTitle : SRT, FullLanguage : RussianDefault : NoForced : No
Text #2ID : 5Format : UTF-8Codec ID : S_TEXT/UTF8Codec ID/Info : UTF-8 Plain TextTitle : SRT, ForcedLanguage : RussianDefault : NoForced : No
Text #3ID : 6Format : UTF-8Codec ID : S_TEXT/UTF8Codec ID/Info : UTF-8 Plain TextTitle : SRT, FullLanguage : EnglishDefault : NoForced : No
Text #4ID : 7Format : UTF-8Codec ID : S_TEXT/UTF8Codec ID/Info : UTF-8 Plain TextTitle : SRT, (SDH)Language : EnglishDefault : NoForced : No
Text #5ID : 8Format : UTF-8Codec ID : S_TEXT/UTF8Codec ID/Info : UTF-8 Plain TextTitle : SRT, FullLanguage : FrenchDefault : NoForced : No
Text #6ID : 9Format : UTF-8Codec ID : S_TEXT/UTF8Codec ID/Info : UTF-8 Plain TextTitle : SRT, ForcedLanguage : FrenchDefault : NoForced : No
Text #7ID : 10Format : UTF-8Codec ID : S_TEXT/UTF8Codec ID/Info : UTF-8 Plain TextTitle : SRT, FullLanguage : SpanishDefault : NoForced : No
Text #8ID : 11Format : UTF-8Codec ID : S_TEXT/UTF8Codec ID/Info : UTF-8 Plain TextTitle : SRT, ForcedLanguage : SpanishDefault : NoForced : No
Menu00:00:00.000 : en:1. More Than a Crop Duster00:04:41.990 : en:2. Not Built to Race00:07:23.234 : en:3. Skipper00:09:04.294 : en:4. Time Trials00:14:38.085 : en:5. Dusty Is In00:17:30.549 : en:6. Training With Skipper00:24:58.872 : en:7. Meeting the Contestants00:30:10.767 : en:8. The Race Begins00:36:28.186 : en:9. Helping Bulldog00:40:37.518 : en:10. Dusty Pulls Ahead00:42:51.193 : en:11. Making a Plan00:48:07.801 : en:12. The Iron Compass00:51:37.802 : en:13. A Love Machine00:56:22.378 : en:14. Over the Ocean01:00:06.144 : en:15. The Truth About Skipper01:01:59.924 : en:16. Dusty Down01:07:05.312 : en:17. That's What Friends Do01:10:13.041 : en:18. Rebuilding Dusty01:12:27.134 : en:19. The Final Leg01:16:26.915 : en:20. Time to Get Dusted

Скриншоты

Скриншот с названием мультфильма
--BDRip-AVC


Source Blu-Ray

-Данный релиз не будет воспроизводиться на бытовых плеерах не поддерживающих MKV и H.264
Скачать

Скачать торрент! Cамoлеты / Planеs (Kлэй Xолл / Klaу Нall) [2013 г., мультфильм, приключения, комедия, семейный, BDRip-AVC] (Оригинальный видеоряд) Dub + Eng + Subs (Rus, Eng, Fre, Spa)

Как скачивать? · Что такое торрент? · Рейтинг и ограничения

Сайт не распространяет и не хранит электронные версии произведений, а лишь предоставляет доступ к создаваемому пользователями каталогу ссылок на торрент-файлы, которые содержат только списки хеш-сумм

[Профиль] [ЛС]
Показать сообщения:    
Ответить на тему

Текущее время: Сегодня 00:56

Часовой пояс: GMT + 4



Вы не можете начинать темы
Вы не можете отвечать на сообщения
Вы не можете редактировать свои сообщения
Вы не можете удалять свои сообщения
Вы не можете голосовать в опросах
Вы не можете прикреплять файлы к сообщениям
Вы не можете скачивать файлы