Обнаженная охотница / Naked Comes The Huntress (Хуан Фэн / Huang Feng) [1978, Гонконг, Боевые искусства, драма, DVDRip] VO

Ответить на тему
 
Автор Сообщение

user ®

Стаж: 11 лет

Сообщений: 15151

Пост Пост: #1 от 15-Дек-2013 03:25

[Цитировать]

Обнаженная охотница / Naked Comes The Huntress
Страна: Гонконг
Жанр: боевые искусства, драма
Год выпуска: 1978
Продолжительность: 01:33:04
Перевод: Одноголосый закадровый (Виктор Береговых)
Cубтитры: нет
Режиссер: Хуан Фэн
В ролях: Чань Сын, Кэрри Ли, Джеймс Тьен, Вон Хап, Марс, Квань Шань, Ли Квань, Вон Чин
Описание: Трое друзей Ле,Ло и Ту отправляются в Маньчжурию в надежде разбогатеть.Заплутав в лесу,они натыкаются на обнаженную девушку-охотницу Мин Мин,которая занимается ловлей норок.Девушка приглашает их к себе домой и знакомит со своим отцом.Старику нравится младший из друзей Ту и он хочет выдать за него свою дочь,пообещав Ту хорошее приданое.Старший из друзей Ле одержим богатством и тоже хочет жениться на Мин Мин.Ради этого он готов предать друзей...(В.Береговых)
Сэмпл: http://multi-up.com/932331
Качество видео: DVDRip
Формат видео: AVI
Видео: XviD, 720x320 (2.25:1), 23.976 fps, 1905 kbps avg, 0.345 bit/pixel
Аудио: AC3, 48.0 KHz, 192 Kbps, 2 channels

MediaInfo

General
Complete name : C:\Обнаженная охотница\Обнаженная охотница.avi
Format : AVI
Format/Info : Audio Video Interleave
File size : 1.37 GiB
Duration : 1h 33mn
Overall bit rate : 2 104 Kbps
Writing application : VirtualDubMod 1.5.4.1 (build 2178/release)
Writing library : VirtualDubMod build 2178/release
Video
ID : 0
Format : MPEG-4 Visual
Format profile : Simple@L3
Format settings, BVOP : Yes
Format settings, QPel : No
Format settings, GMC : No warppoints
Format settings, Matrix : Custom
Codec ID : XVID
Codec ID/Hint : XviD
Duration : 1h 33mn
Bit rate : 1 905 Kbps
Width : 720 pixels
Height : 320 pixels
Display aspect ratio : 2.25:1
Frame rate : 23.976 fps
Resolution : 24 bits
Colorimetry : 4:2:0
Scan type : Progressive
Bits/(Pixel*Frame) : 0.345
Stream size : 1.24 GiB (91%)
Writing library : XviD 1.0.1 (UTC 2004-06-05)
Audio
ID : 1
Format : AC-3
Format/Info : Audio Coding 3
Codec ID : 2000
Duration : 1h 33mn
Bit rate mode : Constant
Bit rate : 192 Kbps
Channel(s) : 2 channels
Channel positions : L R
Sampling rate : 48.0 KHz
Stream size : 128 MiB (9%)
Alignment : Split accross interleaves
Interleave, duration : 96 ms (2.30 video frames)
Interleave, preload duration : 96 ms
Language : Russian

Скриншот c названием фильма

Скриншоты

Скачать

Скачать торрент! Обнаженная охотница / Naked Comes The Huntress (Хуан Фэн / Huang Feng) [1978, Гонконг, Боевые искусства, драма, DVDRip] VO

Как скачивать? · Что такое торрент? · Рейтинг и ограничения

Сайт не распространяет и не хранит электронные версии произведений, а лишь предоставляет доступ к создаваемому пользователями каталогу ссылок на торрент-файлы, которые содержат только списки хеш-сумм

[Профиль] [ЛС]
Показать сообщения:    
Ответить на тему

Текущее время: Сегодня 04:47

Часовой пояс: GMT + 4



Вы не можете начинать темы
Вы не можете отвечать на сообщения
Вы не можете редактировать свои сообщения
Вы не можете удалять свои сообщения
Вы не можете голосовать в опросах
Вы не можете прикреплять файлы к сообщениям
Вы не можете скачивать файлы