Лиза / Lisa (Гари Шерман / Gary Sherman) [1990, США, ужасы, триллер, драма, HDTV 1080i] DVO (НТВ+) + original (eng)

Ответить на тему
 
Автор Сообщение

user ®

Стаж: 7 лет 7 месяцев

Сообщений: 20008

Пост Пост: #1 от 15-Дек-2013 03:25

[Цитировать]

Лиза / Lisa
Год выпуска: 1990
Страна: США
Жанр: ужасы, триллер, драма
Продолжительность: 01:31:38
Перевод: Профессиональный (двухголосый, закадровый)НТВ+
Субтитры: отсутствуют
Оригинальная аудиодорожка: английский
Режиссер: Гари Шерман / Gary Sherman
В ролях: Стейси Кинан (Лиза), Шерил Лэдд (Кэтрин), Д. У. Моффетт (Ричард), Таня Фенмор (Венди), Джеффри Тэмбор (мистер Маркс)
Описание: 14-летняя Лиза живет с матерью, которая воспитывает ее в одиночку. Мать запрещает Лизе встречаться с мальчиками до тех пор, пока ей не исполнится 16 лет. Однажды Лиза знакомится с симпатичным Ричардом и узнает его телефонный номер. Она начинает перезваниваться с молодым человеком, не подозревая, что он - серийный убийца...

Качество: HDTV 1080i
Формат: MKV
Видео кодек: H.264
Аудио кодек: AC3
Видео: 1920 x 1080; 25 fps; 7 445 Kbps
Аудио1: Русский, AC3 2.0 192 Kbps 48,0 КГц(DVO)
Аудио2: English, AC3 2.0 384 Kbps 48,0 КГц(Original)

MediaInfo

D:\HDFILMS\Lisa.1990.HDTV.1080i.Rus.Eng.mkv
General
Unique ID : 221615514522314916159738977067424385360 (0xA6B998765A7EDA4BB0D12F22D6998950)
Complete name : D:\HDFILMS\Lisa.1990.HDTV.1080i.Rus.Eng.mkv
Format : Matroska
File size : 5.24 GiB
Duration : 1h 31mn
Overall bit rate : 8 184 Kbps
Encoded date : UTC 2013-12-14 10:25:47
Writing application : mkvmerge v6.2.0 ('Promised Land') built on Apr 28 2013 12:22:01
Writing library : libebml v1.3.0 + libmatroska v1.4.0
Video #1
ID : 1
Format : AVC
Format/Info : Advanced Video Codec
Format profile : High@L4.0
Format settings, CABAC : Yes
Format settings, ReFrames : 3 frames
Format settings, GOP : M=1, N=14
Codec ID : V_MPEG4/ISO/AVC
Duration : 1h 31mn
Bit rate : 7 445 Kbps
Width : 1 920 pixels
Height : 1 080 pixels
Display aspect ratio : 16:9
Frame rate : 50.000 fps
Original frame rate : 25.000 fps
Standard : Component
Color space : YUV
Chroma subsampling : 4:2:0
Bit depth : 8 bits
Scan type : Interlaced
Scan order : Top Field First
Bits/(Pixel*Frame) : 0.072
Stream size : 4.77 GiB (91%)
Title : Lisa.1990.MGM.HD.1080i
Color primaries : BT.709-5, BT.1361, IEC 61966-2-4, SMPTE RP177
Transfer characteristics : BT.709-5, BT.1361
Matrix coefficients : BT.709-5, BT.1361, IEC 61966-2-4 709, SMPTE RP177
Audio #2
ID : 2
Format : AC-3
Format/Info : Audio Coding 3
Mode extension : CM (complete main)
Codec ID : A_AC3
Duration : 1h 31mn
Bit rate mode : Constant
Bit rate : 192 Kbps
Channel(s) : 2 channels
Channel positions : Front: L R
Sampling rate : 48.0 KHz
Bit depth : 16 bits
Compression mode : Lossy
Stream size : 126 MiB (2%)
Title : DVO AC3 2.0 192 kbps
Language : Russian
Audio #3
ID : 3
Format : AC-3
Format/Info : Audio Coding 3
Mode extension : CM (complete main)
Codec ID : A_AC3
Duration : 1h 31mn
Bit rate mode : Constant
Bit rate : 384 Kbps
Channel(s) : 2 channels
Channel positions : Front: L R
Sampling rate : 48.0 KHz
Bit depth : 16 bits
Compression mode : Lossy
Stream size : 252 MiB (5%)
Title : Original AC3 2.0 384 kbps
Language : English

Скриншоты

Скачать

Скачать торрент!

Как скачивать? · Что такое торрент? · Рейтинг и ограничения

Сайт не распространяет и не хранит электронные версии произведений, а лишь предоставляет доступ к создаваемому пользователями каталогу ссылок на торрент-файлы, которые содержат только списки хеш-сумм

[Профиль] [ЛС]
Показать сообщения:    
Ответить на тему

Текущее время: Сегодня 07:58

Часовой пояс: GMT + 4



Вы не можете начинать темы
Вы не можете отвечать на сообщения
Вы не можете редактировать свои сообщения
Вы не можете удалять свои сообщения
Вы не можете голосовать в опросах
Вы не можете прикреплять файлы к сообщениям
Вы не можете скачивать файлы