Бегом домой / Pao ba hai zi / Homerun (Джек Нео / Jack Neo) [2003, Сингапур, драма, семейный, DVDRip] (Владимир Даль aka kidkong) + Sub Rus

Ответить на тему
 
Автор Сообщение

user ®

Стаж: 11 лет

Сообщений: 15151

Пост Пост: #1 от 09-Дек-2013 21:50

[Цитировать]

Бегом домой / Pao ba hai zi / Homerun
Страна: Сингапур
Жанр: драма, семейный
Год выпуска: 2003
Продолжительность: 01:47:54
Перевод: Субтитры (Владимир Даль aka kidkong)
Cубтитры: русские
Оригинальная аудиодорожка: китайский (мандарин)
Режиссер: Джек Нео / Jack Neo
В ролях: Шон Ли / Shawn Lee, Меган Женг / Megan Zheng, Юн Ксинг /Yun Xiang, Wenyong Huang, Джошуа Энг / Joshua Ang, По Мо Хуанг / Po Ju Huang
Описание: Римейк иранского фильма Дети небес
Кун - школьник, который живет в деревне со своей младшей сестрой. Их мать беременна и слишком слаба, чтобы работать, а отец работает за мизерную зарплату. Кун теряет обувь своей сестры и у них остается только одна пара обуви. Он просит ее ничего не рассказывать, чтобы не расстраивать родителей. Она будет ходить в школу по утрам, а потом бежать обратно, чтобы брат мог пойти в школу во второй половине дня. Но вернуться вовремя довольно сложно…
Доп. информация: http://www.imdb.com/title/tt0356696/
Релиз кинопортала Близзардкид.
Сэмпл: http://multi-up.com/930927
Качество видео: DVDRip
Формат видео: AVI
Видео: XviD MPEG-4 Visual, 720x416 (16:9), 25.000 fps, 1480 kbps, 0.198 b/p
Аудио: AC3, 48000 Hz, 6 ch (Front: L C R, Side: L R, LFE), 448 kbps
Формат субтитров: softsub (SRT)

MediaInfo

General
Complete name : C:\Users\1\Desktop\Торрент\Бегом домой\Pao Ba Hai Zi - Homerun (2003).avi
Format : AVI
Format/Info : Audio Video Interleave
File size : 1.46 GiB
Duration : 1h 47mn
Overall bit rate : 1 935 Kbps
Writing application : VirtualDubMod 1.5.4.1 (build 2178/release)
Writing library : VirtualDubMod build 2178/release
Video
ID : 0
Format : MPEG-4 Visual
Format profile : Advanced Simple@L5
Format settings, BVOP : 1
Format settings, QPel : No
Format settings, GMC : No warppoints
Format settings, Matrix : Custom
Codec ID : XVID
Codec ID/Hint : XviD
Duration : 1h 47mn
Bit rate : 1 480 Kbps
Width : 720 pixels
Height : 416 pixels
Display aspect ratio : 16:9
Frame rate : 25.000 fps
Color space : YUV
Chroma subsampling : 4:2:0
Bit depth : 8 bits
Scan type : Progressive
Compression mode : Lossy
Bits/(Pixel*Frame) : 0.198
Stream size : 1.12 GiB (76%)
Writing library : XviD 64
Audio
ID : 1
Format : AC-3
Format/Info : Audio Coding 3
Mode extension : ME (music and effects)
Codec ID : 2000
Duration : 1h 47mn
Bit rate mode : Constant
Bit rate : 448 Kbps
Channel(s) : 6 channels
Channel positions : Front: L C R, Side: L R, LFE
Sampling rate : 48.0 KHz
Bit depth : 16 bits
Compression mode : Lossy
Stream size : 346 MiB (23%)
Alignment : Split accross interleaves
Interleave, duration : 96 ms (2.40 video frames)
Interleave, preload duration : 96 ms
Language : Chinese

Образец субтитров

5
00:00:52,280 --> 00:00:53,300
Добрый день.
6
00:00:53,400 --> 00:00:54,700
Что ты хочешь?
7
00:00:54,800 --> 00:00:56,180
Здесь дырка,
8
00:00:56,280 --> 00:00:58,740
и здесь совсем порвано.
9
00:00:58,840 --> 00:01:00,460
Вы можете починить это для меня?
10
00:01:00,560 --> 00:01:02,560
Давай!
11
00:01:35,040 --> 00:01:38,220
Господин, мама попросила
купить у вас рис.
12
00:01:38,320 --> 00:01:40,580
Передай отцу, чтобы он отдал долг.
13
00:01:40,680 --> 00:01:43,300
У меня магазин,
а не благотворительная организация.
14
00:01:43,400 --> 00:01:46,300
Папа просит, чтобы вы выручили нас.
15
00:01:46,400 --> 00:01:48,740
Он заплатит вам через несколько дней.
16
00:01:48,840 --> 00:01:52,500
Заплати хоть часть,
или забудь про рис.
17
00:01:52,600 --> 00:01:55,420
Господин, если вы не дадите нам риса,
18
00:01:55,520 --> 00:01:58,860
нам нечего будет есть.
19
00:01:58,960 --> 00:02:01,020
Может, мне еще и пожить за вас?
20
00:02:01,120 --> 00:02:06,120
Почему ваши проблемы
должны касаться меня?
21
00:02:08,560 --> 00:02:09,540
Ладно, ладно.
22
00:02:09,640 --> 00:02:11,640
Набери две банки риса.
23
00:02:15,880 --> 00:02:18,100
Одну банку.
24
00:02:18,200 --> 00:02:21,060
Половину банки! Половину банки!
25
00:02:21,160 --> 00:02:23,540
Не из этого мешка. Это хороший рис.

Скриншот c названием фильма

Скриншоты


Скачать

Скачать торрент! Бегом домой / Pao ba hai zi / Homerun (Джек Нео / Jack Neo) [2003, Сингапур, драма, семейный, DVDRip] (Владимир Даль aka kidkong) + Sub Rus

Как скачивать? · Что такое торрент? · Рейтинг и ограничения

Сайт не распространяет и не хранит электронные версии произведений, а лишь предоставляет доступ к создаваемому пользователями каталогу ссылок на торрент-файлы, которые содержат только списки хеш-сумм

[Профиль] [ЛС]
Показать сообщения:    
Ответить на тему

Текущее время: Сегодня 17:05

Часовой пояс: GMT + 4



Вы не можете начинать темы
Вы не можете отвечать на сообщения
Вы не можете редактировать свои сообщения
Вы не можете удалять свои сообщения
Вы не можете голосовать в опросах
Вы не можете прикреплять файлы к сообщениям
Вы не можете скачивать файлы