Теневой заговор / Shadow Conspiracy (Джордж Пан Косматос / George P. Cosmatos) [1996, США, боевик, триллер, WEB-DL 720p] AVO (Гаврилов) + DVO + Sub Rus, Eng + Original Eng

Ответить на тему
 
Автор Сообщение

user ®

Стаж: 7 лет 7 месяцев

Сообщений: 20008

Пост Пост: #1 от 09-Дек-2013 12:50

[Цитировать]

Теневой заговор / Shadow Conspiracy
Страна: США
Студия: Cinergi Pictures Entertainment Inc. & Hollywood Pictures
Жанр: боевик, триллер
Год выпуска: 1996
Продолжительность: 01:42:59
Перевод 1: Авторский (одноголосый закадровый) АНДРЕЙ ГАВРИЛОВ
Перевод 2: Профессиональный (двухголосый закадровый) от "West Video"
Cубтитры: русские, английские
Оригинальная аудиодорожка: английский
Режиссер: Джордж Пан Косматос / George P. Cosmatos
В ролях: Чарли Шин /Charlie Sheen/, Линда Хэмилтон /Linda Hamilton/, Доналд Сазерленд /Donald Sutherland/,Реджиналд Дэвис /Reginald Davis/, Хенри Строзир /Henry Strozier/, Рамон Эстевес /Ramon Estevez/, Теодор Байкел /Theodore Bikel/, Стэнли Андерсон /Stanley Anderson/, Бобби Зайонг /Bobby Zajong/, Терри О'Куинн /Terry O'Quinn/, Том Куинн /Tom Quinn/, Кейси Биггс /Casey Biggs/, Чарлз Чиоффи /Charles Cioffi/, Николас Туртурро /Nicholas Turturro/, Антонио Тодд /Antonio Todd/, Гор Видал /Gore Vidal/, Дей Янг /Dey Young/, Пенни Фуллер /Penny Fuller/, Стивен Лэнг /Stephen Lang/, Чарлз Бауэн /Charles Bowen/, Бен Газзара /Ben Gazzara/, Сэм Уотерстон /Sam Waterston/, Пол Глисон /Paul Gleason/, Джонни Ньюмэн /Johnny Newman/, Майкл Каннингэм /Michael Cunningham/, Ричард Бауэр /Richard Bauer/, Джеффри Томпсон /Jeffrey Thompson/, Уолт МакФерсон /Walt MacPherson/, Беверли Бригэм /Beverly Brigham/, Боб Чайлд /Bob Child/, Викки Росс-Норрис /Vicki Ross-Norris/, Джеймс Э. Чори /James A. Chory/, Йонас Элмблэд /Jonas Elmblan/
Описание: Президент, переизбранный на второй срок, готовится к радикальным изменениям и собирается произнести речь в конгрессе, написанную совместно с Бобби Бишопом (Чарли Шин), своим советником. Журналистка Аманда Гивенс (Линда Хэмилтон) также кое-что разнюхала о "теневом заговоре". Профессиональный убийца убивает одного за другим людей, имеющих, очевидно, какие-либо данные об этой страшной тайне. Один из них, профессор Поченко, получает пулю в затылок и умирает буквально на руках у Бобби. Итак Бобби и Аманда становятся живыми мишенями - у них есть только 12 часов, чтобы выяснить, что стоит за этими кошмарными событиями, след от которых тянется на самые верхние эшелоны власти. Добротный, динамичный политический боевик с детективными переплетениями сюжета, который вам, наверняка, захочется самим распутать вместе с его героями. (Иванов М.)
--------------------------------------------------
Оператор: Базз Фейтшанс-четвертый /Buzz Feitshans IV/
Сценарист: Рик Гиббс /Ric Gibbs/, Ади Хасак /Adi Hasak/
Продюсер: Эндрю Дж. Вайна /Andrew G. Vajna/, Терри Коллис /Terry Collis/
Переводчик: Андрей Гаврилов
Монтажер: Роберт А. Ферретти /Robert A. Ferretti/
Композитор: Брюс Бротон /Bruce Broughton/
Художник: Джо Элвес /Joe Alves/
Костюмы: Эйприл Ферри /April Ferry/
Исполнительный продюсер: Базз Фейтшанс-четвертый /Buzz Feitshans IV/, Эндрю Дж. Вайна /Andrew G. Vajna/
Сопродюсер: Ади Хасак /Adi Hasak/
Кастинг: Кэрен Элизабет Рэй /Karen Elizabeth Rae/
--------------------------------------------------
КИНОПОИСК. RU
РЕЙТИНГ 5.859 оценки: 225
4,7/10 from 3360 users
--------------------------------------------------
--------------------------------------------------
СЭМПЛ
--------------------------------------------------
Примечание: Скорость маленькая 50 kb/c, но раздаю круглосуточно.
--------------------------------------------------
Тип релиза: WEB-DL 720p
Контейнер: MKV
Видео: 1280x542; 23.976 fps; ~ 3 899 Kbps; 0.234 Bits/Pixel
Аудио 1: Russian - 48 kHz, AC3 Dolby Digital, 2/0 (L,R) 2ch, ~192 kbps - Андрей Гаврилов
Аудио 2: Russian - 48 kHz, AC3, Front: L C R, Side: L R, LFE, ~ 384 kbps - DVO
Аудио 3: English - 48 kHz, AC3, Front: L C R, Side: L R, LFE, ~ 384 kbps - Original
Формат субтитров: Russian (*ASS), English (*UTF-8)

MediaInfo

General
Complete name : F:\EXCLUZIVE=19\ТЕНЕВОЙ ЗАГОВОР=SHADOW CONSPIRACY.1997\Shadow.Conspiracy.1997\Shadow.Conspiracy.1997.720p.WEB-DL.mkv
Format : Matroska
File size : 3.57 GiB
Duration : 1h 42mn
Overall bit rate : 4 957 Kbps
Encoded date : UTC 2013-12-06 14:52:37
Writing application : mkvmerge v3.3.0 ('Language') built on Mar 24 2010 14:59:24
Writing library : libebml v0.8.0 + libmatroska v0.9.0
Video
ID : 1
Format : AVC
Format/Info : Advanced Video Codec
Format profile : Main@L3.1
Format settings, CABAC : No
Format settings, ReFrames : 2 frames
Muxing mode : Container profile=Unknown@3.1
Codec ID : V_MPEG4/ISO/AVC
Duration : 1h 42mn
Bit rate : 3 899 Kbps
Width : 1 280 pixels
Height : 542 pixels
Display aspect ratio : 2.35:1
Frame rate : 23.976 fps
Color space : YUV
Chroma subsampling : 4:2:0
Bit depth : 8 bits
Scan type : Progressive
Bits/(Pixel*Frame) : 0.234
Stream size : 2.80 GiB (79%)
Title : Shadow.Conspiracy.1997.
Language : English
Color primaries : BT.709-5, BT.1361, IEC 61966-2-4, SMPTE RP177
Transfer characteristics : BT.709-5, BT.1361
Matrix coefficients : BT.709-5, BT.1361, IEC 61966-2-4 709, SMPTE RP177
Audio #1
ID : 2
Format : AC-3
Format/Info : Audio Coding 3
Mode extension : CM (complete main)
Codec ID : A_AC3
Duration : 1h 42mn
Bit rate mode : Constant
Bit rate : 192 Kbps
Channel(s) : 2 channels
Channel positions : Front: L R
Sampling rate : 48.0 KHz
Stream size : 141 MiB (4%)
Title : AVO Гаврилов @ AC3 2сh. 192 kbps
Language : Russian
Audio #2
ID : 3
Format : AC-3
Format/Info : Audio Coding 3
Mode extension : CM (complete main)
Codec ID : A_AC3
Duration : 1h 42mn
Bit rate mode : Constant
Bit rate : 384 Kbps
Channel(s) : 6 channels
Channel positions : Front: L C R, Side: L R, LFE
Sampling rate : 48.0 KHz
Stream size : 283 MiB (8%)
Title : DVO @ AC3 6сh. 384 kbps
Language : Russian
Audio #3
ID : 4
Format : AC-3
Format/Info : Audio Coding 3
Mode extension : CM (complete main)
Codec ID : A_AC3
Duration : 1h 42mn
Bit rate mode : Constant
Bit rate : 384 Kbps
Channel(s) : 6 channels
Channel positions : Front: L C R, Side: L R, LFE
Sampling rate : 48.0 KHz
Stream size : 283 MiB (8%)
Title : Original @ AC3 6сh. 384 kbps
Language : English
Text #1
ID : 5
Format : ASS
Codec ID : S_TEXT/ASS
Codec ID/Info : Advanced Sub Station Alpha
Title : (* ASS)
Language : Russian
Text #2
ID : 6
Format : UTF-8
Codec ID : S_TEXT/UTF8
Codec ID/Info : UTF-8 Plain Text
Title : (* UTF-8)
Language : English
Menu
00:00:00.000 : en:Chapter 1
00:11:47.000 : en:Chapter 2
00:16:48.000 : en:Chapter 3
00:31:21.000 : en:Chapter 4
00:41:18.000 : en:Chapter 5
00:47:01.000 : en:Chapter 6
00:52:00.000 : en:Chapter 7
01:00:52.000 : en:Chapter 8
01:11:23.000 : en:Chapter 9
01:21:06.000 : en:Chapter 10
01:29:05.000 : en:Chapter 11
01:36:18.000 : en:Chapter 12

Скриншоты

, ,
, ,
, ,
Скачать

Скачать торрент!

Как скачивать? · Что такое торрент? · Рейтинг и ограничения

Сайт не распространяет и не хранит электронные версии произведений, а лишь предоставляет доступ к создаваемому пользователями каталогу ссылок на торрент-файлы, которые содержат только списки хеш-сумм

[Профиль] [ЛС]
Показать сообщения:    
Ответить на тему

Текущее время: Сегодня 06:14

Часовой пояс: GMT + 4



Вы не можете начинать темы
Вы не можете отвечать на сообщения
Вы не можете редактировать свои сообщения
Вы не можете удалять свои сообщения
Вы не можете голосовать в опросах
Вы не можете прикреплять файлы к сообщениям
Вы не можете скачивать файлы